Новые раздачи

21-Окт
21-Окт
21-Окт
21-Окт
21-Окт
21-Окт
21-Окт
21-Окт
21-Окт
21-Окт
21-Окт
21-Окт

Михаил Сатченко - Etsy 101: Как настроить магазин и продвинуть его (2019) торрент

Ответить на тему
 
Автор Сообщение

Prescious ®

Михаил Сатченко | Etsy 101: Как настроить магазин и продвинуть его (2019) PCRec - Автор: Михаил Сатченко
Жанр: Продажи в интернете
Описание:
Узнайте как продавать на Etsy и какие маркетинговые стратегии необходимы для успеха на площадке. Этот курс расскажет вам, как оптимизировать ваш список листингов и оптимизировать удобный поиск для любого товара.
В этом видео вы научитесь, как продавать с помощью Etsy начиная с начального уровня, заканчивая продвинутым! Вы сможете оптимизировать свои листинги для увеличения продаж и снизить затраты на рекламу. Вы сможете выявить наиболее продаваемые продукты на Etsy. Вы будете учиться на моих ошибках, до тех пор пока вы не доберётесь до статуса лучшего продавца на Etsy! Вы сможете создать свой бренд или свой магазин с помощью массовой посещаемости на Etsy и предоста­вить своему сайту хорошую рекламу с помощью площадки.
Продолжительность: 01:35:51
Качество видео: PCRec
Видео: AVC/H.264, 1280x720, ~1190 Kbps
Аудио: AAC, 2 ch, 128 Kbps

MediaInfo:

Format                      : MPEG-4
Format profile : Base Media
Codec ID : isom (isom/iso2/avc1/mp41)
File size : 178 MiB
Duration : 19 min 48 s
Overall bit rate mode : Variable
Overall bit rate : 1 257 kb/s
Writing application : Lavf57.7.2
Video
ID : 1
Format : AVC
Format/Info : Advanced Video Codec
Format profile : Baseline@L3.1
Format settings : 3 Ref Frames
Format settings, CABAC : No
Format settings, Reference : 3 frames
Format settings, GOP : M=1, N=24
Codec ID : avc1
Codec ID/Info : Advanced Video Coding
Duration : 19 min 47 s
Bit rate : 1 190 kb/s
Nominal bit rate : 2 018 kb/s
Width : 1 280 pixels
Height : 720 pixels
Display aspect ratio : 16:9
Frame rate mode : Constant
Frame rate : 24.000 FPS
Color space : YUV
Chroma subsampling : 4:2:0
Bit depth : 8 bits
Scan type : Progressive
Bits/(Pixel*Frame) : 0.054
Stream size : 168 MiB (95%)
Writing library : x264 core 148 r2643 5c65704
Encoding settings : cabac=0 / ref=3 / deblock=1:0:0 / analyse=0x1:0x111 / me=hex / subme=7 / psy=1 / psy_rd=1.00:0.00 / mixed_ref=1 / me_range=16 / chroma_me=1 / trellis=1 / 8x8dct=0 / cqm=0 / deadzone=21,11 / fast_pskip=1 / chroma_qp_offset=-2 / threads=22 / lookahead_threads=3 / sliced_threads=0 / nr=0 / decimate=1 / interlaced=0 / bluray_compat=0 / constrained_intra=0 / bframes=0 / weightp=0 / keyint=24 / keyint_min=2 / scenecut=40 / intra_refresh=0 / rc_lookahead=40 / rc=cbr / mbtree=1 / bitrate=2018 / ratetol=1.0 / qcomp=0.60 / qpmin=0 / qpmax=69 / qpstep=4 / vbv_maxrate=2018 / vbv_bufsize=8000 / nal_hrd=none / filler=0 / ip_ratio=1.40 / aq=1:1.00
Codec configuration box : avcC
Audio
ID : 2
Format : AAC LC
Format/Info : Advanced Audio Codec Low Complexity
Codec ID : mp4a-40-2
Duration : 19 min 48 s
Duration_LastFrame : -14 ms
Bit rate mode : Variable
Bit rate : 64.0 kb/s
Channel(s) : 2 channels
Channel layout : L R
Sampling rate : 44.1 kHz
Frame rate : 43.066 FPS (1024 SPF)
Compression mode : Lossy
Stream size : 9.07 MiB (5%)
Default : Yes
Alternate group : 1

Дополнительная информация:

Чему я научусь:
- Работать на дому, как частный предприниматель
- Зарабатывать на жизнь с помощью «Etsy»
- Обучению оптимизации списка вашей продукции
- Понимать пользу от социальных сетей и оптимизации в поисковых системах
Учебный план:
Раздел 1: Введение
Лекция 1.1 Выбор названия бренда 3:19
Лекция 1.2 Поиск топовых ключевых слов 19:49
Лекция 1.3 Начало работы 3:22
Лекция 1.4 Оптимизация SEO на ETSY 7:31
Лекция 1.5 Разработка вашего баннера и логотипа 1:04
Раздел 2: Выбираем продукт для продажи на Etsy
Лекция 2.1 Что мне нужно продавать на ETSY 3:30
Лекция 2.2 Варианты для тех, кто не художник и творец 3:22
Лекция 2.3 Как связываться с производителем 5:34
Лекция 2.4 Фото товаров на Etsy 3:50
Лекция 2.5 Добавление листингов на Etsy 8:31
Раздел 3: Реклама на Etsy
Лекция 3.1 Продвигаемые листинги на Etsy 2:31
Лекция 3.2 Купоны с кодами на Etsy и контекстная реклама 3:01
Раздел 4: Выполнение заказов и обслуживание клиентов
Лекция 4.1 Упаковка - сделайте её на Etsy 1:36
Лекция 4.2 Обработка и отправка заказов на Etsy 2:21
Лекция 4.3 Скорая помощь обслуживания клиентов 3:09
Раздел 5: Социальные сети и Etsy
Лекция 5.1 Создаём для бренда Etsy страницу на Фейсбуке 7:16
Лекция 5.2 Почему социальные сети так важны 4:57
Лекция 5.3 Что я должен делать в социальных сетях 4:28
Лекция 5.4 Как получить обратные ссылки и улучшить SEO 4:14
Лекция 5.5 Инструменты для управления соц. сетями 2:26
Тест 1 Заключение 0:30
Скриншоты:

Дополнительные скриншоты:

Скачать .torrent

Чтобы скачать торрент-файл

Михаил Сатченко - Etsy 101: Как настроить магазин и продвинуть его (2019)

Вам нужно Авторизоваться на сайте под своим логином. Если у Вы ещё не зарегистрированы, тогда Вам нужно пройти Регистрацию


Показать сообщения:    
Ответить на тему

Скачать Михаил Сатченко - Etsy 101: Как настроить магазин и продвинуть его (2019) торрент бесплатно. Отзывы, слив складчины.

Текущее время: Сегодня 07:05

Часовой пояс: GMT + 4



Вы не можете начинать темы
Вы не можете отвечать на сообщения
Вы не можете редактировать свои сообщения
Вы не можете удалять свои сообщения
Вы не можете голосовать в опросах
Вы не можете прикреплять файлы к сообщениям
Вы не можете скачивать файлы