Новые раздачи

30-Ноя
30-Ноя
30-Ноя
29-Ноя
29-Ноя
29-Ноя
29-Ноя
29-Ноя
28-Ноя
28-Ноя
28-Ноя
28-Ноя
28-Ноя
28-Ноя
28-Ноя

Важное

Нетология - PR в digital: стратегия, репутация, инструменты (2017) торрент

Ответить на тему
 
Автор Сообщение

Prescious ®

Нетология | PR в digital: стратегия, репутация, инструменты (2017) PCRec - Автор: Нетология
Жанр: Видеокурсы
Описание:
Если вы планируете развиваться в сфере PR и хотите освоить интернет-инструменты PR. Также курс полезен будет всем, кто занимается продвижением и маркетингом компании, бренда, продукта в интернете, и в своей работе взаимодействует с различными лидерами мнений.
Чему вы научитесь в течение курса:
1. Разработка PR-стартегии в интернете
Современный PR — это, прежде всего, коммуникации. Сегодня появилось даже такое понятие, как «вселенная точек контакта» с потребителями информации. И наибольшая часть этих точек приходится на долю сети: digital-СМИ, социальные сети, emailing и многое другое. Как сделать так, чтобы нужная информация дошла до целевой аудитории? Как измерить эффективность коммуникации в интернете? Как работать с репутацией и добиться того, чтобы ваш рекламный посыл достиг цели? Как работать с ситуативным маркетингом и как выбрать лучший момент взаимодействия с пользователем? На нашем курсе вы получите ответы на все эти вопросы, а также посмотрите на свой продукт сверху, построите собственную карту коммуникаций и настроите каждый канал на конкретную целевую аудиторию.

Продолжение описания:

2. Инструменты PR в Digital
Интернет открывает перед PR-специалистами безграничные возможности по работе с потребителями. В этом блоке вы изучите различные каналы и научитесь их применять эффективно. Главное, задействуя тот или иной способ коммуникации, хорошо понимать, чего хочет ваша аудитория, думать в первую очередь о проблемах потребителя — и уже потом рассказывать, как эту проблему можно решить с помощью вашего продукта. Интернет позволяет посчитать эффективность каждого из инструментов, которые применяет ваш менеджер по PR. Вы изучите такие каналы, как email-маркетинг, контент-менеджмент, нативная реклама, digital- и собственные СМИ. Отдельно мы поговорим о том, как работать с блогерами.
3. Интегрированные маркетинговые коммуникации в цифровой среде
Сегодня любая коммуникация легко попадает в сеть. Не забывайте об этом, даже если речь идет о письмах коллегам, партнерам, выступлении топ-менеджера на собрании для сотрудников. Это не значит, что нужно все запретить, однако нужно уметь правильно реагировать и грамотно отрабатывать внештатные ситуации. Как применять антикризисный PR, как работать с информационными атаками и каким образом выстроить интегрированные коммуникации — вы узнаете в этом блоке.
Какие знания и навыки я получу?
После окончания учебной программы вы сможете эффективно использовать инструменты PR в интернете: следить за репутацией компании, продукта, выстраивать PR-стратегию, работать с лидерами мнения, работать с email-рассылками. Вы научитесь выстраивать интегрированные маркетинговые коммуникации в рамках стратегии, а также отражать информационные атаки в интернете.
Продолжительность: 21:00:00
Качество видео: PCRec
Видео: AVC/H.264, 1280x720, ~414 kbps
Аудио: AC3, 2 ch, 235 kbps

MediaInfo:

Video
ID : 1
Format : AVC
Format/Info : Advanced Video Codec
Format profile : High@L3.2
Format settings, CABAC : Yes
Format settings, ReFrames : 5 frames
Format settings, GOP : M=4, N=60
Codec ID : avc1
Codec ID/Info : Advanced Video Coding
Duration : 2 h 3 min
Bit rate : 414 kb/s
Width : 1 280 pixels
Height : 720 pixels
Display aspect ratio : 16:9
Frame rate mode : Constant
Frame rate : 20.000 FPS
Color space : YUV
Chroma subsampling : 4:2:0
Bit depth : 8 bits
Scan type : Progressive
Bits/(Pixel*Frame) : 0.022
Stream size : 366 MiB (63%)
Writing library : x264 core 150 r10 df79067
Encoding settings : cabac=1 / ref=5 / deblock=1:0:0 / analyse=0x3:0x113 / me=hex / subme=8 / psy=1 / psy_rd=1.00:0.00 / mixed_ref=1 / me_range=16 / chroma_me=1 / trellis=2 / 8x8dct=1 / cqm=0 / deadzone=21,11 / fast_pskip=1 / chroma_qp_offset=-2 / threads=22 / lookahead_threads=3 / sliced_threads=0 / nr=0 / decimate=1 / interlaced=0 / bluray_compat=0 / stitchable=1 / constrained_intra=0 / bframes=3 / b_pyramid=2 / b_adapt=1 / b_bias=0 / direct=3 / weightb=1 / open_gop=0 / weightp=2 / keyint=infinite / keyint_min=20 / scenecut=40 / intra_refresh=0 / rc_lookahead=50 / rc=crf / mbtree=1 / crf=20.0 / qcomp=0.60 / qpmin=5 / qpmax=69 / qpstep=4 / vbv_maxrate=2750 / vbv_bufsize=7500 / crf_max=0.0 / nal_hrd=none / filler=0 / ip_ratio=1.40 / aq=1:1.00
Encoded date : UTC 2017-08-18 18:39:13
Tagged date : UTC 2017-08-18 18:39:13
Color range : Limited
Color primaries : BT.709
Transfer characteristics : BT.709
Matrix coefficients : BT.709
Audio
ID : 2
Format : AAC
Format/Info : Advanced Audio Codec
Format profile : LC
Codec ID : 40
Duration : 2 h 3 min
Bit rate mode : Variable
Bit rate : 235 kb/s
Channel(s) : 2 channels
Channel positions : Front: L R
Sampling rate : 48.0 kHz
Frame rate : 46.875 FPS (1024 spf)
Compression mode : Lossy
Stream size : 208 MiB (36%)
Encoded date : UTC 2017-08-18 18:39:13
Tagged date : UTC 2017-08-18 18:39:13
Скриншоты:
Скачать .torrent

Чтобы скачать торрент-файл

Нетология - PR в digital: стратегия, репутация, инструменты (2017)

Вам нужно Авторизоваться на сайте под своим логином. Если у Вы ещё не зарегистрированы, тогда Вам нужно пройти Регистрацию


Показать сообщения:    
Ответить на тему

Скачать Нетология - PR в digital: стратегия, репутация, инструменты (2017) торрент бесплатно. Отзывы, слив складчины.

Текущее время: Сегодня 21:20

Часовой пояс: GMT + 4



Вы не можете начинать темы
Вы не можете отвечать на сообщения
Вы не можете редактировать свои сообщения
Вы не можете удалять свои сообщения
Вы не можете голосовать в опросах
Вы не можете прикреплять файлы к сообщениям
Вы не можете скачивать файлы