Новые раздачи

29-Ноя
29-Ноя
28-Ноя
28-Ноя
28-Ноя
28-Ноя
28-Ноя
28-Ноя
28-Ноя
28-Ноя
28-Ноя
28-Ноя
28-Ноя
28-Ноя
28-Ноя

Важное

XYZ School ,Тамара Бахлычева - Hand-Paint (2020) торрент

Ответить на тему
 
Автор Сообщение

Prescious ®

XYZ School ,Тамара Бахлычева | Hand-Paint (2020) PCRec- Автор: Тамара Бахлычева
Производство: XYZ School
Жанр: Рисование, 3D графика
Описание:
Hand-Paint — это первая техника по созданию текстур, которая появилась в связи с переходом игр из 2D в 3D-пространство. В ней при помощи рисованных текстур создаётся иллюзия объема с освещением, а также задается информация по цвету и типу материала.
Hand-paint — это почти всегда стилизация. А стилизованный арт всегда и был и будет востребован. Если посмотреть на список популярных игр, можно убедиться, что в основном в них используется стилизованная графика.
Есть несколько причин того, почему Hand-Paint остаётся востребованным:

Продолжение описания

В хорошем исполнении ассеты в этом стиле могут выглядеть как ожившие иллюстрации и приносить эстетическое удовольствие.
— За счёт лимита на количество и разрешение текстур, а также небольшого количества полигонов стиль Hand-Paint не сильно нагружает систему. Это позволяет делать игры для очень слабых устройств и для большего разнообразия платформ.
—Грамотно стилизованный hand-paint визуально не устаревает дольше чем графика, выполненная в реалистичном стиле.
— Производство стилизованного hand-painted ассета в целом занимает меньше времени, и благодаря этому снижается цена.
Продолжительность: 92:08:47
Качество видео: PCRec
Видео: AVC/H.264, 1080x1920, 30fps, ~1 646 Кбит/сек
Аудио: AAC, 2 ch, 253 Кбит/сек

MediaInfo:

Общее
Полное имя : E:\Downloads\[XYZ School] - HandPaint\5 Моделинг\2_1 Моделлинг булавы с комментариями.mp4
Формат : MPEG-4
Профиль формата : Base Media / Version 2
Идентификатор кодека : mp42 (mp42/mp41/isom/avc1)
Размер файла : 524 Мбайт
Продолжительность : 38 м. 28 с.
Режим общего битрейта : Переменный
Общий поток : 1 904 Кбит/сек
Дата пометки : UTC 2020-10-26 14:11:35
Видео
Идентификатор : 1
Формат : AVC
Формат/Информация : Advanced Video Codec
Профиль формата : High@L4
Настройки формата : CABAC / 5 Ref Frames
Параметр CABAC формата : Да
Параметр RefFrames формата : 5 кадров
Идентификатор кодека : avc1
Идентификатор кодека/Информация : Advanced Video Coding
Продолжительность : 38 м. 28 с.
Битрейт : 1 646 Кбит/сек
Ширина : 1 920 пикселей
Высота : 1 080 пикселей
Соотношение сторон : 16:9
Режим частоты кадров : Постоянный
Частота кадров : 30,000 кадров/сек
Цветовое пространство : YUV
Субдискретизация насыщенности : 4:2:0
Битовая глубина : 8 бит
Тип развёртки : Прогрессивная
Бит/(Пиксели*Кадры) : 0.026
Размер потока : 453 Мбайт (86%)
Библиотека кодирования : x264 core 161 r10 db0d417
Настройки программы : cabac=1 / ref=5 / deblock=1:0:0 / analyse=0x3:0x113 / me=hex / subme=8 / psy=1 / psy_rd=1.00:0.00 / mixed_ref=1 / me_range=16 / chroma_me=1 / trellis=2 / 8x8dct=1 / cqm=0 / deadzone=21,11 / fast_pskip=1 / chroma_qp_offset=-2 / threads=34 / lookahead_threads=5 / sliced_threads=0 / nr=0 / decimate=1 / interlaced=0 / bluray_compat=0 / stitchable=1 / constrained_intra=0 / bframes=3 / b_pyramid=2 / b_adapt=2 / b_bias=0 / direct=3 / weightb=1 / open_gop=0 / weightp=2 / keyint=infinite / keyint_min=30 / scenecut=40 / intra_refresh=0 / rc_lookahead=50 / rc=crf / mbtree=1 / crf=20.0 / qcomp=0.60 / qpmin=5 / qpmax=69 / qpstep=4 / vbv_maxrate=5500 / vbv_bufsize=15000 / crf_max=0.0 / nal_hrd=none / filler=0 / ip_ratio=1.40 / aq=1:1.00
Дата кодирования : UTC 2020-10-26 14:11:35
Дата пометки : UTC 2020-10-26 14:11:35
Цветовой диапазон : Limited
Основные цвета : BT.709
Характеристики трансфера : BT.709
Коэффициенты матрицы : BT.709
Codec configuration box : avcC
Аудио
Идентификатор : 2
Формат : AAC LC
Формат/Информация : Advanced Audio Codec Low Complexity
Идентификатор кодека : mp4a-40-2
Продолжительность : 38 м. 28 с.
Вид битрейта : Переменный
Битрейт : 253 Кбит/сек
Каналы : 2 канала
Channel layout : L R
Частота : 48,0 КГц
Частота кадров : 46,875 кадров/сек (1024 SPF)
Метод сжатия : С потерями
Размер потока : 69,7 Мбайт (13%)
Дата кодирования : UTC 2020-10-26 14:11:35
Дата пометки : UTC 2020-10-26 14:11:35

Наполнение курса:

Курс состоит из трёх больших частей.
Первая часть посвящена 2D.
В ней я расскажу о технике hand-paint и о том, как в ней работать, а также научу создавать собственные концепты. Теория обязательно будет, но её я постараюсь свести к минимуму, закрепляя ее домашними практическими заданиями, ведь для нас главное — практический результат.
В этой части ты научишься:
— Анализировать техническое задание, применять на практике теорию стилизованного дизайна и работать с референсами.
— Разбираться в базовой теории цвета и светотени.
— Искать интересные идеи, создавая силуэты и наброски дизайна оружия, а также переходить от силуэта к более сложным уровням детализации.
— Доводить концепты до финального состояния, «уточнять» дизайн и подбирать необходимые цвета при помощи референсов.
— Создавать поддерживающие концепты, например для эффектов и кастомизации.
Подобные концепты ты научишься создавать сам после прохождения этого блока.
Вторая часть посвящена 3D-моделингу.
Здесь мы создадим на основе твоего концепта трёхмерный ассет и пройдёмся по всем основным этапам 3D-моделирования. В итоге у тебя получится полноценная модель оружия, готовая для использования в игре.
На этих уроках ты научишься:
— Создавать low-poly модель на основе своего концепта.
— Делать оптимизированный UV-mapping.
— Запекать поддерживающие базовые карты на примере программы 3D coat.
— Создавать Diffuse hand-painted текстуры.
— Создавать и настраивать под выбранный игровой движок на примере Marmoset такие карты как: Specular, Emissive, Alpha channel
Ты научишься превращать 2D-концепты в 3D-модели.
Третья часть посвящена рендеру и презентации.
Наша модель уже готова, но её нужно выигрышно подать — а это не так уж просто. В итоге у тебя получится красиво оформленная работа, которую можно использовать в презентации или в портфолио. На этих уроках ты научишься:
— Ты научишься настраивать материалы, свет и рендер в Marmoset.
— А также оформлять презентацию из скриншотов и видео для своего портфолио.
Скриншоты:
Скачать .torrent

Чтобы скачать торрент-файл

XYZ School ,Тамара Бахлычева - Hand-Paint (2020)

Вам нужно Авторизоваться на сайте под своим логином. Если у Вы ещё не зарегистрированы, тогда Вам нужно пройти Регистрацию


Показать сообщения:    
Ответить на тему

Скачать XYZ School ,Тамара Бахлычева - Hand-Paint (2020) торрент бесплатно. Отзывы, слив складчины.

Текущее время: Сегодня 10:47

Часовой пояс: GMT + 4



Вы не можете начинать темы
Вы не можете отвечать на сообщения
Вы не можете редактировать свои сообщения
Вы не можете удалять свои сообщения
Вы не можете голосовать в опросах
Вы не можете прикреплять файлы к сообщениям
Вы не можете скачивать файлы