RealLife English - Английский по сериалу «Друзья» / Fluent With Friends (2020) торрент

Ответить на тему
 
Автор Сообщение

Prescious ®

RealLife English | Английский по сериалу «Друзья» / Fluent With Friends (2020) PCRec [En]- Производство: RealLife English
Жанр: Английский язык
Описание:
В течение 48 недель вы будете смотреть, смеяться, учиться и резко повышать уровень владения английским вместе с одним из лучших когда-либо созданных американских сериалов: «Друзья».
Используя метод обучения RealLife Power Learning Method, Чад, Итан и Джастин проведут вас в лингвистическом и культурном туре по свободному владению английским языком, получая полный опыт изучения увлекательной и юмористической истории шести колоритных друзей из Нью-Йорка.

Подробное описание

Listening - понимать носителей языка без субтитров и не теряться.
Vocabulary - несколько тысяч идиом, сленг, фразовые глаголы, грамматика и культурные объяснения.
Speaking - для определения и имитации естественных речевых моделей - как мы сокращаем, соединяем и съедаем наши слова.
Fluency - сделать увлекательные и эффективные учебные привычки постоянной частью вашей жизни.
Каждую неделю в течение 48 недель вы получаете подробное сопутствующее руководство по культуре на 18 страницах, которое с расшифровкой стенограммы объясняет ВСЕ это с точки зрения среднего-продвинутого. Каждый урок мощности содержит:
Более 100 пояснений и картинок из родного словаря, объясняющих самые важные идиомы, сленг, фразовые глаголы, словосочетания и грамматику.
Более 50 примеров произношения носителей языка Анализ того, как туземцы на самом деле сокращают, связывают и едят свои слова.
Справочные материалы по культуре для объяснения анекдотов культурно-исторический контекст
Продолжительность: 23:32:19
Качество видео: PCRec
Язык озвучки: Английский
Видео: AVC/H.264, 1280x720, ~1026 Kbps
Аудио: AAC, 2 ch, 128 Kbps

MediaInfo:

Общее
Полное имя : O:\[RealLife English] Fluent With Friends. Английский по сериалу «Друзья» (2020)\FwF Season One\Lesson 07 - The One with the Blackout (s01e07)\2. Video Warm-up Lesson.mp4
Формат : MPEG-4
Профиль формата : Base Media
Идентификатор кодека : isom (isom/iso2/avc1/mp41)
Размер файла : 120 Мбайт
Продолжительность : 14 м. 28 с.
Общий поток : 1 162 Кбит/сек
Программа кодирования : Lavf57.83.100
Видео
Идентификатор : 1
Формат : AVC
Формат/Информация : Advanced Video Codec
Профиль формата : High@L3.1
Настройки формата : CABAC / 4 Ref Frames
Параметр CABAC формата : Да
Параметр RefFrames формата : 4 кадра
Идентификатор кодека : avc1
Идентификатор кодека/Информация : Advanced Video Coding
Продолжительность : 14 м. 28 с.
Битрейт : 1 026 Кбит/сек
Ширина : 1 280 пикселей
Высота : 720 пикселей
Соотношение сторон : 16:9
Режим частоты кадров : Постоянный
Частота кадров : 29,970 (29970/1000) кадров/сек
Цветовое пространство : YUV
Субдискретизация насыщенности : 4:2:0
Битовая глубина : 8 бит
Тип развёртки : Прогрессивная
Бит/(Пиксели*Кадры) : 0.037
Размер потока : 106 Мбайт (88%)
Библиотека кодирования : x264 core 152
Настройки программы : cabac=1 / ref=4 / deblock=1:0:0 / analyse=0x3:0x113 / me=umh / subme=8 / psy=1 / psy_rd=1.00:0.00 / mixed_ref=1 / me_range=16 / chroma_me=1 / trellis=1 / 8x8dct=1 / cqm=0 / deadzone=21,11 / fast_pskip=1 / chroma_qp_offset=-2 / threads=22 / lookahead_threads=3 / sliced_threads=0 / nr=0 / decimate=1 / interlaced=0 / bluray_compat=0 / constrained_intra=0 / bframes=3 / b_pyramid=2 / b_adapt=2 / b_bias=0 / direct=3 / weightb=1 / open_gop=0 / weightp=2 / keyint=89 / keyint_min=45 / scenecut=0 / intra_refresh=0 / rc_lookahead=40 / rc=crf / mbtree=1 / crf=23.0 / qcomp=0.60 / qpmin=10 / qpmax=51 / qpstep=4 / vbv_maxrate=3750 / vbv_bufsize=3750 / crf_max=0.0 / nal_hrd=none / filler=0 / ip_ratio=1.41 / aq=1:1.00
Язык : Spanish
Codec configuration box : avcC
Аудио
Идентификатор : 2
Формат : AAC LC
Формат/Информация : Advanced Audio Codec Low Complexity
Идентификатор кодека : mp4a-40-2
Продолжительность : 14 м. 28 с.
Вид битрейта : Постоянный
Битрейт : 128 Кбит/сек
Каналы : 2 канала
Channel layout : L R
Частота : 44,1 КГц
Частота кадров : 43,066 кадра/сек (1024 SPF)
Метод сжатия : С потерями
Размер потока : 13,3 Мбайт (11%)
Язык : Spanish
Default : Да
Alternate group : 1
Скриншоты:
Скачать .torrent

Чтобы скачать торрент-файл

RealLife English - Английский по сериалу «Друзья» / Fluent With Friends (2020)

Вам нужно Авторизоваться на сайте под своим логином. Если у Вы ещё не зарегистрированы, тогда Вам нужно пройти Регистрацию


Marymar2020

Обновите ссылочку пожалуйста)

Prescious ®

Marymar2020, https://s3.itor.be/viewtopic.php?t=21

Marymar2020

Дело в том, что он выдает ошибку и не загружает, а остальные торренты грузит.

Prescious ®

Marymar2020, У меня работает без ошибок.
Показать сообщения:    
Ответить на тему

Скачать RealLife English - Английский по сериалу «Друзья» / Fluent With Friends (2020) торрент бесплатно. Отзывы, слив складчины.

Текущее время: Сегодня 09:15

Часовой пояс: GMT + 4



Вы не можете начинать темы
Вы не можете отвечать на сообщения
Вы не можете редактировать свои сообщения
Вы не можете удалять свои сообщения
Вы не можете голосовать в опросах
Вы не можете прикреплять файлы к сообщениям
Вы не можете скачивать файлы