Новые раздачи

30-Ноя
30-Ноя
30-Ноя
30-Ноя
30-Ноя
29-Ноя
29-Ноя
29-Ноя
29-Ноя
29-Ноя
28-Ноя
28-Ноя
28-Ноя
28-Ноя
28-Ноя

Важное

Павел Антонов - Facebook Performance Pro (2020) торрент

Ответить на тему
 
Автор Сообщение

Prescious ®

Павел Антонов | Facebook Performance Pro (2020) PCRec - Автор: Павел Антонов
Производство: Targetorium
Жанр: SMM, Маркетинг
Описание:
Как подняться на следующую ступень в работе с рекламой Facebook & Instagram, чтобы зарабатывать $3000+/мес и начать работать с международными проектами
Продолжительность: 50:56:29
Качество видео: PCRec
Язык озвучки: Русский
Видео: AVC/H.264, 1920x1050, ~500 Kbps
Аудио: AAC, 2 ch, 166 Kbps

MediaInfo:

Общее
Полное имя : Z:\Sliff\[Павел Антонов] [Targetorium] Facebook Performance Pro\Lesson 5\Детальный Таргетинг И Декомпозиции Целевых Групп.mp4
Формат : MPEG-4
Профиль формата : Base Media / Version 2
Идентификатор кодека : mp42 (isom/iso2/avc1/mp41)
Размер файла : 170 Мбайт
Продолжительность : 53 м. 7 с.
Общий поток : 446 Кбит/сек
Дата кодирования : UTC 2020-04-20 12:36:21
Дата пометки : UTC 2020-04-20 12:36:21
Программа кодирования : HandBrake 1.3.1 2020010400
Видео
Идентификатор : 1
Формат : AVC
Формат/Информация : Advanced Video Codec
Профиль формата : Main@L4
Настройки формата : CABAC / 4 Ref Frames
Параметр CABAC формата : Да
Параметр RefFrames формата : 4 кадра
Идентификатор кодека : avc1
Идентификатор кодека/Информация : Advanced Video Coding
Продолжительность : 53 м. 7 с.
Битрейт : 273 Кбит/сек
Ширина : 1 920 пикселей
Высота : 1 080 пикселей
Соотношение сторон : 16:9
Режим частоты кадров : Постоянный
Частота кадров : 25,000 кадров/сек
Цветовое пространство : YUV
Субдискретизация насыщенности : 4:2:0
Битовая глубина : 8 бит
Тип развёртки : Прогрессивная
Бит/(Пиксели*Кадры) : 0.005
Размер потока : 104 Мбайт (61%)
Библиотека кодирования : x264 core 157 r2935 545de2f
Настройки программы : cabac=1 / ref=2 / deblock=1:0:0 / analyse=0x1:0x111 / me=hex / subme=6 / psy=1 / psy_rd=1.00:0.00 / mixed_ref=1 / me_range=16 / chroma_me=1 / trellis=1 / 8x8dct=0 / cqm=0 / deadzone=21,11 / fast_pskip=1 / chroma_qp_offset=-2 / threads=12 / lookahead_threads=2 / sliced_threads=0 / nr=0 / decimate=1 / interlaced=0 / bluray_compat=0 / constrained_intra=0 / bframes=3 / b_pyramid=2 / b_adapt=1 / b_bias=0 / direct=1 / weightb=1 / open_gop=0 / weightp=1 / keyint=250 / keyint_min=25 / scenecut=40 / intra_refresh=0 / rc_lookahead=30 / rc=crf / mbtree=1 / crf=22.0 / qcomp=0.60 / qpmin=0 / qpmax=69 / qpstep=4 / vbv_maxrate=20000 / vbv_bufsize=25000 / crf_max=0.0 / nal_hrd=none / filler=0 / ip_ratio=1.40 / aq=1:1.00
Дата кодирования : UTC 2020-04-20 12:36:21
Дата пометки : UTC 2020-04-20 12:36:21
Цветовой диапазон : Limited
Основные цвета : BT.709
Характеристики трансфера : BT.709
Коэффициенты матрицы : BT.709
Codec configuration box : avcC
Аудио
Идентификатор : 2
Формат : AAC LC
Формат/Информация : Advanced Audio Codec Low Complexity
Идентификатор кодека : mp4a-40-2
Продолжительность : 53 м. 7 с.
Вид битрейта : Постоянный
Битрейт : 166 Кбит/сек
Каналы : 2 канала
Channel layout : L R
Частота : 44,1 КГц
Частота кадров : 43,066 кадра/сек (1024 SPF)
Метод сжатия : С потерями
Размер потока : 63,2 Мбайт (37%)
Заголовок : Stereo
Default : Да
Alternate group : 1
Дата кодирования : UTC 2020-04-20 12:36:21
Дата пометки : UTC 2020-04-20 12:36:21
Скриншоты:
Скачать .torrent

Чтобы скачать торрент-файл

Павел Антонов - Facebook Performance Pro (2020)

Вам нужно Авторизоваться на сайте под своим логином. Если у Вы ещё не зарегистрированы, тогда Вам нужно пройти Регистрацию


Показать сообщения:    
Ответить на тему

Скачать Павел Антонов - Facebook Performance Pro (2020) торрент бесплатно. Отзывы, слив складчины.

Текущее время: Сегодня 22:27

Часовой пояс: GMT + 4



Вы не можете начинать темы
Вы не можете отвечать на сообщения
Вы не можете редактировать свои сообщения
Вы не можете удалять свои сообщения
Вы не можете голосовать в опросах
Вы не можете прикреплять файлы к сообщениям
Вы не можете скачивать файлы