Новые раздачи

30-Ноя
30-Ноя
30-Ноя
29-Ноя
29-Ноя
29-Ноя
29-Ноя
29-Ноя
28-Ноя
28-Ноя
28-Ноя
28-Ноя
28-Ноя
28-Ноя
28-Ноя

Важное

AreaWeb, Михаил Протасевич - Laravel 8 — лучший PHP фреймворк (2020) торрент

Ответить на тему
 
Автор Сообщение

Prescious ®

AreaWeb, Михаил Протасевич | Laravel 8 — лучший PHP фреймворк (2020) PCRec - Автор: Михаил Протасевич
Производство: AreaWeb
Жанр: Программирование
Описание:
Laravel — это одно из лучших решений для PHP разработчика. Данный фреймворк включает в себя самые необходимые инструменты для построения веб-приложений.
Продолжительность: 10:23:18
Качество видео: PCRec
Видео: AVC/H.264, 1920x1080, ~732 Kbps
Аудио: AAC, 2 ch, 128 Kbps

MediaInfo:

Формат                                   : MPEG-4
Профиль формата : Base Media
Идентификатор кодека : isom (isom/iso2/avc1/mp41)
Размер файла : 98,1 Мбайт
Продолжительность : 15 м. 43 с.
Общий поток : 872 Кбит/сек
Видео
Идентификатор : 1
Формат : AVC
Формат/Информация : Advanced Video Codec
Профиль формата : High@L4.2
Настройки формата : CABAC / 3 Ref Frames
Параметр CABAC формата : Да
Параметр RefFrames формата : 3 кадра
Идентификатор кодека : avc1
Идентификатор кодека/Информация : Advanced Video Coding
Продолжительность : 15 м. 43 с.
Битрейт : 732 Кбит/сек
Ширина : 1 920 пикселей
Высота : 1 080 пикселей
Соотношение сторон : 16:9
Режим частоты кадров : Постоянный
Частота кадров : 59,940 (60000/1001) кадров/сек
Цветовое пространство : YUV
Субдискретизация насыщенности : 4:2:0
Битовая глубина : 8 бит
Тип развёртки : Прогрессивная
Бит/(Пиксели*Кадры) : 0.006
Размер потока : 82,4 Мбайт (84%)
Заголовок : ISO Media file produced by Google Inc.
Цветовой диапазон : Limited
Основные цвета : BT.709
Характеристики трансфера : BT.709
Коэффициенты матрицы : BT.709
Codec configuration box : avcC
Аудио
Идентификатор : 2
Формат : AAC LC
Формат/Информация : Advanced Audio Codec Low Complexity
Идентификатор кодека : mp4a-40-2
Продолжительность : 15 м. 43 с.
Вид битрейта : Постоянный
Битрейт : 128 Кбит/сек
Каналы : 2 канала
Channel layout : L R
Частота : 44,1 КГц
Частота кадров : 43,066 кадра/сек (1024 SPF)
Метод сжатия : С потерями
Размер потока : 14,4 Мбайт (15%)
Заголовок : ISO Media file produced by Google Inc.
Язык : English
Default : Да
Alternate group : 1

Дополнительная информация:

  • Что и зачем?
    В данном уроке мы познакомимся с Laravel.
  • Установка
    В этом уроке мы разберемся с тем, как можно установить Laravel с помощью официального репозитория GIT и Composer.
  • Интерфейс artisan и первые страницы + домашнее задание
    В этом уроке мы познакомимся с системой роутинга и создадим свои первые страницы
  • Шаблонизатор Blade + домашнее задание
    В этом уроке мы рассмотрим шаблонизатор Blade и применим его для отображения страниц
  • Контроллеры + домашнее задание
    В этом уроке мы познакомимся с контроллерами. Поймем их назначение, а также применим их на практических примерах.
  • Модели, миграции и Eloquent + домашнее задание
    В этом уроке мы познакомимся с возможностью взаимодействия фреймворка с базой данных. Разберемся с такими понятиями как модель, миграции и ОРМ Eloquent
  • Ограничения внешнего ключа и отношения + домашнее задание
    В данном занятии мы изучим связи и отношения, которые в дальнейшем улучшат взаимодействие с сущностями базы данных
  • Отправка форм и Ajax
    В этом уроке мы научимся отправлять и обрабатывать POST запросы через форму, узнаем, что такое CSRF и сделаем отправку данных с помощью Ajax
  • Аутентификация
    В этом уроке мы разработаем систему авторизации и регистрации
  • Посредники + домашнее задание
    В этом уроке мы создамим своих первых посредников для регулирования доступа к страницам или других ограничений
  • (Практика) – Свой сайт с вакансиями (временно не доступен)
    Данное занятие посвящено созданию сайта со списком вакансий на основе фреймворка Laravel
  • REST API что это такое?
    В этом уроке мы разберемся с тем, что такое REST API и как его применяют на практике
  • REST API - GET (получение данных) и api.php + домашнее задание
    В этом уроке мы научимся получать данные с помощью метода GET
  • REST API - POST (создание данных) + домашнее задание
    В этом занятии мы познакомимся в методом POST с помощью которого можно отправлять и добавлять записи в базу данных.
  • REST API - PUT, PATCH (обновление данных) + домашнее задание
    В этом занятии мы мы научимся обновлять информацию записей с помощью методов PUT и PATCH
  • REST API - DELETE (удаление данных) + домашнее задание
    В этом уроке мы научимся удалять данные с помощью метода DELETE
  • API ресурсы и ресурсные контроллеры
    В этом уроке мы упростим обработку данных, которые были получены с БД и научимся создавать контроллеры, ориентированные на REST
  • REST API (аутентификация по Bearer токену)
    В этом уроке мы создадим аутентификацию по Bearer токену, с помощью которой можно ограничивать доступ к функционалу REST API
  • (Практика) - Делаем API для сайта с вакансиями (временно не доступен)
    Данное занятие посвящено созданию REST API для сайта со списком вакансий на основе фреймворка Laravel
  • Websockets (веб-сокеты) – что это?
    В данном уроке, мы познакомимся веб-сокетами, поймем, как они работают и для их можно использовать
  • Websockets (веб-сокеты) – установка
    Пришло время произвести установку всех необходимы компонентов для работы с веб-сокетами.
  • Websockets (веб-сокеты) – первые события
    В этом занятии мы создадим свое первое событие и послушаем его через JS
Скриншоты:
Скачать .torrent

Чтобы скачать торрент-файл

AreaWeb, Михаил Протасевич - Laravel 8 — лучший PHP фреймворк (2020)

Вам нужно Авторизоваться на сайте под своим логином. Если у Вы ещё не зарегистрированы, тогда Вам нужно пройти Регистрацию


Показать сообщения:    
Ответить на тему

Скачать AreaWeb, Михаил Протасевич - Laravel 8 — лучший PHP фреймворк (2020) торрент бесплатно. Отзывы, слив складчины.

Текущее время: Сегодня 20:51

Часовой пояс: GMT + 4



Вы не можете начинать темы
Вы не можете отвечать на сообщения
Вы не можете редактировать свои сообщения
Вы не можете удалять свои сообщения
Вы не можете голосовать в опросах
Вы не можете прикреплять файлы к сообщениям
Вы не можете скачивать файлы