Новые раздачи

30-Ноя
30-Ноя
30-Ноя
30-Ноя
29-Ноя
29-Ноя
29-Ноя
29-Ноя
29-Ноя
28-Ноя
28-Ноя
28-Ноя
28-Ноя
28-Ноя
28-Ноя

Важное

Иван Майоров - Делай крутые сайты без знания кода (2018) торрент

Ответить на тему
 
Автор Сообщение

Prescious ®

Иван Майоров | Делай крутые сайты без знания кода (2018) PCRec - Автор: Иван Майоров
Производство: Webflow
Жанр: Создание видео
Описание:
Для тех кто не знает Webflow - это лидирующий сервис верстки сайтов. Освоение этого сервиса позволит вам сверстать любой дизайн макет (от Landing Page до Интернет-магазинов). Все ваши проекты будут полностью адаптивны под моб. устройства. В дополнение могу сказать, что Webflow позволит вам делать сложную анимацию (интеракцию) которые вызовут wow-эффект у ваших клиентов (если вы фрилансер).
Продолжительность: 10:46:20
Качество видео: PCRec
Видео: AVC/H.264, 1920x1080, ~581kbps
Аудио: AAC, 2 ch, 125kbps

MediaInfo:

General
Complete name : Q:\Делай крутые сайты без знания кода (Webflow 2018)\Урок 01 - Создаём слайдер.mp4
Format : MPEG-4
Format profile : Base Media
Codec ID : isom (isom/iso2/avc1/mp41)
File size : 74.0 MiB
Duration : 14 min 29 s
Overall bit rate : 714 kb/s
Video
ID : 1
Format : AVC
Format/Info : Advanced Video Codec
Format profile : High@L4
Format settings : CABAC / 2 Ref Frames
Format settings, CABAC : Yes
Format settings, Reference fra : 2 frames
Codec ID : avc1
Codec ID/Info : Advanced Video Coding
Duration : 14 min 29 s
Bit rate : 582 kb/s
Width : 1 920 pixels
Height : 1 080 pixels
Display aspect ratio : 16:9
Frame rate mode : Constant
Frame rate : 25.000 FPS
Color space : YUV
Chroma subsampling : 4:2:0
Bit depth : 8 bits
Scan type : Progressive
Bits/(Pixel*Frame) : 0.011
Stream size : 60.3 MiB (82%)
Color range : Limited
Color primaries : BT.709
Transfer characteristics : BT.709
Matrix coefficients : BT.709
Codec configuration box : avcC
Audio
ID : 2
Format : AAC LC
Format/Info : Advanced Audio Codec Low Complexity
Codec ID : mp4a-40-2
Duration : 14 min 29 s
Bit rate mode : Constant
Bit rate : 126 kb/s
Channel(s) : 2 channels
Channel layout : L R
Sampling rate : 44.1 kHz
Frame rate : 43.066 FPS (1024 SPF)
Compression mode : Lossy
Stream size : 13.0 MiB (18%)
Default : Yes
Alternate group : 1

Дополнительная информация:

Программное обеспечение: Photoshop
Файлы примеров: Что-то есть
Скриншоты:
Скачать .torrent

Чтобы скачать торрент-файл

Иван Майоров - Делай крутые сайты без знания кода (2018)

Вам нужно Авторизоваться на сайте под своим логином. Если у Вы ещё не зарегистрированы, тогда Вам нужно пройти Регистрацию


Показать сообщения:    
Ответить на тему

Скачать Иван Майоров - Делай крутые сайты без знания кода (2018) торрент бесплатно. Отзывы, слив складчины.

Текущее время: Сегодня 21:36

Часовой пояс: GMT + 4



Вы не можете начинать темы
Вы не можете отвечать на сообщения
Вы не можете редактировать свои сообщения
Вы не можете удалять свои сообщения
Вы не можете голосовать в опросах
Вы не можете прикреплять файлы к сообщениям
Вы не можете скачивать файлы