Новые раздачи

29-Ноя
29-Ноя
28-Ноя
28-Ноя
28-Ноя
28-Ноя
28-Ноя
28-Ноя
28-Ноя
28-Ноя
28-Ноя
28-Ноя
28-Ноя
28-Ноя
28-Ноя

Важное

Дегтярев Александр - Основы программирования на JavaScript. Условия (2021) торрент

Ответить на тему
 
Автор Сообщение

Prescious ®

Дегтярев Александр | Основы программирования на JavaScript. Условия (2021) PCRec - Автор: Дегтярев Александр
Жанр: Обучающее видео
Описание:
Продолжение курса по основам JavaScript для абсолютных новичков, где основной уклон сделан на "условия". Уроки имеют минимум теории, и каждый урок строится на задании, которое обучающийся должен выполнить сам, просто посмотрев на текущий код с использованием логического мышления.
Продолжительность: 01:06:29
Качество видео: PCRec
Видео: AVC/H.264, 1280x720, ~101 kb/s
Аудио: AAC, 2 ch, 128 kb/s

MediaInfo:

Format                                   : MPEG-4
Format profile : Base Media / Version 2
Codec ID : mp42 (isom/mp42)
File size : 19.4 MiB
Duration : 11 min 39 s
Overall bit rate mode : Variable
Overall bit rate : 232 kb/s
Writing application : Google
gsst : 0
gstd : 699060
Video
ID : 1
Format : AVC
Format/Info : Advanced Video Codec
Format profile : High@L3.1
Format settings : CABAC / 3 Ref Frames
Format settings, CABAC : Yes
Format settings, ReFrames : 3 frames
Codec ID : avc1
Codec ID/Info : Advanced Video Coding
Duration : 11 min 38 s
Bit rate : 101 kb/s
Width : 1 280 pixels
Height : 720 pixels
Display aspect ratio : 16:9
Frame rate mode : Constant
Frame rate : 29.970 (30000/1001) FPS
Color space : YUV
Chroma subsampling : 4:2:0
Bit depth : 8 bits
Scan type : Progressive
Bits/(Pixel*Frame) : 0.004
Stream size : 8.43 MiB (44%)
Title : ISO Media file produced by Google Inc.
Color range : Limited
Color primaries : BT.709
Transfer characteristics : BT.709
Matrix coefficients : BT.709
Codec configuration box : avcC
Audio
ID : 2
Format : AAC LC
Format/Info : Advanced Audio Codec Low Complexity
Codec ID : mp4a-40-2
Duration : 11 min 39 s
Bit rate mode : Variable
Bit rate : 128 kb/s
Channel(s) : 2 channels
Channel layout : L R
Sampling rate : 44.1 kHz
Frame rate : 43.066 FPS (1024 SPF)
Compression mode : Lossy
Stream size : 10.7 MiB (55%)
Title : ISO Media file produced by Google Inc.

Дополнительная информация:

Остальные видео можно посмотреть на канале: https://www.youtube.com/playlist?list=PLIF-DGMqHXLb...fK7GpWo6z8QyfV_b
Предыдущая раздача: Дегтярев Александр - JavaScript на коленке (2021)
Скриншоты:
Скачать .torrent

Чтобы скачать торрент-файл

Дегтярев Александр - Основы программирования на JavaScript. Условия (2021)

Вам нужно Авторизоваться на сайте под своим логином. Если у Вы ещё не зарегистрированы, тогда Вам нужно пройти Регистрацию


Показать сообщения:    
Ответить на тему

Скачать Дегтярев Александр - Основы программирования на JavaScript. Условия (2021) торрент бесплатно. Отзывы, слив складчины.

Текущее время: Сегодня 11:14

Часовой пояс: GMT + 4



Вы не можете начинать темы
Вы не можете отвечать на сообщения
Вы не можете редактировать свои сообщения
Вы не можете удалять свои сообщения
Вы не можете голосовать в опросах
Вы не можете прикреплять файлы к сообщениям
Вы не можете скачивать файлы