Новые раздачи

30-Ноя
30-Ноя
30-Ноя
29-Ноя
29-Ноя
29-Ноя
29-Ноя
29-Ноя
28-Ноя
28-Ноя
28-Ноя
28-Ноя
28-Ноя
28-Ноя
28-Ноя

Важное

Tilda school - Научитесь создавать сайты, лендинги и интернет-магазины на Тильде (2021) торрент

Ответить на тему
 
Автор Сообщение

Prescious ®

Tilda school | Научитесь создавать сайты, лендинги и интернет-магазины на Тильде (2021) PCRec - Автор: Tilda school
Жанр: Программирование, вёрстка
Описание:
Получите быстрый старт в профессии веб-дизайнера и освойте навыки, которые помогут решать важные задачи бизнеса в интернете.
Продолжительность: 00:15:00 (видеоурок)
Качество видео: PCRec
Язык озвучки: Русский
Видео: AVC/H.264, 1920x960, ~~1000 Kbps
Аудио: AAC, 2 ch, 192 Kbps

MediaInfo:

Общее
Полное имя : Z:\Sliff\Научитесь создавать сайты, лендинги и интернет-магазины на Тильде [Tilda school]\Неделя 2\7.Основы работы в личных кабинетах Tilda и кейсы использования.mp4
Формат : MPEG-4
Профиль формата : Base Media
Идентификатор кодека : isom (isom/iso2/avc1/mp41)
Размер файла : 108 Мбайт
Продолжительность : 11 м. 41 с.
Режим общего битрейта : Переменный
Общий поток : 1 297 Кбит/сек
Программа кодирования : Lavf57.25.100
Видео
Идентификатор : 1
Формат : AVC
Формат/Информация : Advanced Video Codec
Профиль формата : Baseline@L4
Настройки формата : 1 Ref Frames
Параметр CABAC формата : Нет
Параметр RefFrames формата : 1 кадр
Идентификатор кодека : avc1
Идентификатор кодека/Информация : Advanced Video Coding
Продолжительность : 11 м. 41 с.
Битрейт : 1 102 Кбит/сек
Ширина : 1 920 пикселей
Высота : 960 пикселей
Соотношение сторон : 2,000
Режим частоты кадров : Переменный
Частота кадров : 29,970 (29970/1000) кадров/сек
Минимальная частота кадров : 7,500 кадров/сек
Максимальная частота кадров : 30,000 кадров/сек
Цветовое пространство : YUV
Субдискретизация насыщенности : 4:2:0
Битовая глубина : 8 бит
Тип развёртки : Прогрессивная
Бит/(Пиксели*Кадры) : 0.020
Размер потока : 92,1 Мбайт (85%)
Codec configuration box : avcC
Аудио
Идентификатор : 2
Формат : AAC LC
Формат/Информация : Advanced Audio Codec Low Complexity
Идентификатор кодека : mp4a-40-2
Продолжительность : 11 м. 41 с.
Вид битрейта : Переменный
Битрейт : 192 Кбит/сек
Каналы : 2 канала
Channel layout : L R
Частота : 44,1 КГц
Частота кадров : 43,066 кадра/сек (1024 SPF)
Метод сжатия : С потерями
Размер потока : 15,7 Мбайт (15%)
Default : Да
Alternate group : 1
Скриншоты:
Скачать .torrent

Чтобы скачать торрент-файл

Tilda school - Научитесь создавать сайты, лендинги и интернет-магазины на Тильде (2021)

Вам нужно Авторизоваться на сайте под своим логином. Если у Вы ещё не зарегистрированы, тогда Вам нужно пройти Регистрацию


Показать сообщения:    
Ответить на тему

Скачать Tilda school - Научитесь создавать сайты, лендинги и интернет-магазины на Тильде (2021) торрент бесплатно. Отзывы, слив складчины.

Текущее время: Сегодня 21:03

Часовой пояс: GMT + 4



Вы не можете начинать темы
Вы не можете отвечать на сообщения
Вы не можете редактировать свои сообщения
Вы не можете удалять свои сообщения
Вы не можете голосовать в опросах
Вы не можете прикреплять файлы к сообщениям
Вы не можете скачивать файлы