Новые раздачи

30-Ноя
30-Ноя
30-Ноя
29-Ноя
29-Ноя
29-Ноя
29-Ноя
29-Ноя
28-Ноя
28-Ноя
28-Ноя
28-Ноя
28-Ноя
28-Ноя
28-Ноя

Важное

Дмитрий Забарило - Учимся программировать микроконтроллеры (2020) торрент

Ответить на тему
 
Автор Сообщение

Prescious ®

Дмитрий Забарило | Учимся программировать микроконтроллеры (2020) PCRec -Автор: Дмитрий Забарило
Жанр: Программирование, электронника
Описание:
Очень большой курс по программированию микроконтроллеров "От и До".
Данный курс рассчитан главным образом для начинающих, но также будет полезен тем, кто уже имеет некоторый опыт программирования микроконтроллеров, а также студентам соответствующих специальностей.
Отличительной особенностью данного онлайн курса является простота и доступность изложения материала. Поэтому курс пригоден даже для тех, кто не обладает глубокими знаниями в области программирования и электроники.
Продолжительность: ~02:25:00 (Видеоурок)
Качество видео: PCRec
Язык озвучки: Русский
Видео: AVC/H.264, 1920x1080, ~1000 Kbps
Аудио: AAC, 2 ch, 350 Kbps

MediaInfo:

Общее
Полное имя : Z:\Sliff\123123123\Учимся программировать микроконтроллеры (Дмитрий Забарило)\Занятие_1(15.10.2019)-024.mp4
Формат : MPEG-4
Профиль формата : Base Media / Version 2
Идентификатор кодека : mp42 (mp42/mp41)
Размер файла : 1,97 Гбайт
Продолжительность : 3 ч. 40 м.
Режим общего битрейта : Переменный
Общий поток : 1 279 Кбит/сек
Дата кодирования : UTC 2021-03-06 03:41:16
Дата пометки : UTC 2021-03-06 03:41:27
TIM : 00:00:00:00
TSC : 30
TSZ : 1
Видео
Идентификатор : 1
Формат : AVC
Формат/Информация : Advanced Video Codec
Профиль формата : Main@L4.1
Настройки формата : CABAC / 3 Ref Frames
Параметр CABAC формата : Да
Параметр RefFrames формата : 3 кадра
Параметр GOP формата : M=1, N=30
Идентификатор кодека : avc1
Идентификатор кодека/Информация : Advanced Video Coding
Продолжительность : 3 ч. 40 м.
Битрейт : 958 Кбит/сек
Ширина : 1 920 пикселей
Высота : 1 080 пикселей
Соотношение сторон : 16:9
Режим частоты кадров : Постоянный
Частота кадров : 30,000 кадров/сек
Цветовое пространство : YUV
Субдискретизация насыщенности : 4:2:0
Битовая глубина : 8 бит
Тип развёртки : Прогрессивная
Бит/(Пиксели*Кадры) : 0.015
Размер потока : 1,48 Гбайт (75%)
Язык : English
Дата кодирования : UTC 2021-03-06 03:41:16
Дата пометки : UTC 2021-03-06 03:41:16
Codec configuration box : avcC
Аудио
Идентификатор : 2
Формат : AAC LC
Формат/Информация : Advanced Audio Codec Low Complexity
Идентификатор кодека : mp4a-40-2
Продолжительность : 3 ч. 40 м.
Продолжительность оригинала : 3 ч. 40 м.
Вид битрейта : Переменный
Битрейт : 317 Кбит/сек
Максимальный битрейт : 378 Кбит/сек
Каналы : 2 канала
Channel layout : L R
Частота : 48,0 КГц
Частота кадров : 46,875 кадров/сек (1024 SPF)
Метод сжатия : С потерями
Размер потока : 501 Мбайт (25%)
Размер потока оригинала : 501 Мбайт (25%)
Язык : English
Дата кодирования : UTC 2021-03-06 03:41:16
Дата пометки : UTC 2021-03-06 03:41:16
Скриншоты:
Скачать .torrent

Чтобы скачать торрент-файл

Дмитрий Забарило - Учимся программировать микроконтроллеры (2020)

Вам нужно Авторизоваться на сайте под своим логином. Если у Вы ещё не зарегистрированы, тогда Вам нужно пройти Регистрацию


Показать сообщения:    
Ответить на тему

Скачать Дмитрий Забарило - Учимся программировать микроконтроллеры (2020) торрент бесплатно. Отзывы, слив складчины.

Текущее время: Сегодня 20:21

Часовой пояс: GMT + 4



Вы не можете начинать темы
Вы не можете отвечать на сообщения
Вы не можете редактировать свои сообщения
Вы не можете удалять свои сообщения
Вы не можете голосовать в опросах
Вы не можете прикреплять файлы к сообщениям
Вы не можете скачивать файлы