Новые раздачи

29-Ноя
29-Ноя
29-Ноя
28-Ноя
28-Ноя
28-Ноя
28-Ноя
28-Ноя
28-Ноя
28-Ноя
28-Ноя
28-Ноя
28-Ноя
28-Ноя
28-Ноя

Важное

М.Росс - Вводный вебинар MindManager (2015) торрент

Ответить на тему
 
Автор Сообщение

Prescious ®

М.Росс | Вводный вебинар MindManager (2015) PCRec - Автор: М.Росс
Производство: Home video
Жанр: Бизнес обучение, программное обеспечение
Описание:
MindManager – ведущее ПО для работы с информацией методом ментальных катр, построенным по аналогии работы логики и памяти человека.
Подробно с функционалом этого замечательного продукта от Corel inc можно ознакомиться на сайте производителя https://www.mindmanager.com/ru
В настоящем релизе раздаётся вводный вэбинар по базовым функциям MindManager и началу работы с ним, состоящий из двух видеоуроков.
Продолжительность: ~01:10:00
Качество видео: PCRec
Язык озвучки: Русский
Видео: AVC/H.264, 1180х720, ~162 Kbps
Аудио: AAC, 2 ch, 53,6 Kbps

MediaInfo:

Формат                                   : MPEG-4
Профиль формата : Base Media / Version 2
Идентификатор кодека : mp42 (M4V /mp42/isom)
Размер файла : 47,3 Мбайт
Продолжительность : 30 м. 24 с.
Общий поток : 217 Кбит/сек
Дата кодирования : UTC 2015-04-16 14:28:36
Дата пометки : UTC 2015-04-16 14:28:36
Видео
Идентификатор : 1
Формат : AVC
Формат/Информация : Advanced Video Codec
Профиль формата : High@L3.1
Настройки формата : CABAC / 4 Ref Frames
Параметр CABAC формата : Да
Параметр RefFrames формата : 4 кадра
Параметр GOP формата : M=1, N=75
Идентификатор кодека : avc1
Идентификатор кодека/Информация : Advanced Video Coding
Продолжительность : 30 м. 24 с.
Продолжительность оригинала : 30 м. 24 с.
Битрейт : 162 Кбит/сек
Ширина : 1 180 пикселей
Высота : 720 пикселей
Соотношение сторон : 16:10
Режим частоты кадров : Постоянный
Частота кадров : 15,000 кадров/сек
Цветовое пространство : YUV
Субдискретизация насыщенности : 4:2:0
Битовая глубина : 8 бит
Тип развёртки : Прогрессивная
Бит/(Пиксели*Кадры) : 0.013
Размер потока : 35,2 Мбайт (74%)
Размер потока оригинала : 35,2 Мбайт (74%)
Язык : English
Дата кодирования : UTC 2015-04-16 14:28:36
Дата пометки : UTC 2015-04-16 14:28:36
Цветовой диапазон : Limited
Основные цвета : BT.709
Характеристики трансфера : BT.709
Коэффициенты матрицы : BT.709
mdhd_Duration : 1824064
Codec configuration box : avcC
Аудио
Идентификатор : 2
Формат : AAC LC
Формат/Информация : Advanced Audio Codec Low Complexity
Идентификатор кодека : mp4a-40-2
Продолжительность : 30 м. 24 с.
Продолжительность оригинала : 30 м. 24 с.
Вид битрейта : Постоянный
Битрейт : 53,6 Кбит/сек
Каналы : 2 канала
Channel layout : L R
Частота : 44,1 КГц
Частота кадров : 43,066 кадра/сек (1024 SPF)
Метод сжатия : С потерями
Размер потока : 11,6 Мбайт (25%)
Размер потока оригинала : 11,6 Мбайт (25%)
Язык : English
Дата кодирования : UTC 2015-04-16 14:28:36
Дата пометки : UTC 2015-04-16 14:28:36
mdhd_Duration : 1822920
Скриншоты:
Скачать .torrent

Чтобы скачать торрент-файл

М.Росс - Вводный вебинар MindManager (2015)

Вам нужно Авторизоваться на сайте под своим логином. Если у Вы ещё не зарегистрированы, тогда Вам нужно пройти Регистрацию


Показать сообщения:    
Ответить на тему

Скачать М.Росс - Вводный вебинар MindManager (2015) торрент бесплатно. Отзывы, слив складчины.

Текущее время: Сегодня 12:18

Часовой пояс: GMT + 4



Вы не можете начинать темы
Вы не можете отвечать на сообщения
Вы не можете редактировать свои сообщения
Вы не можете удалять свои сообщения
Вы не можете голосовать в опросах
Вы не можете прикреплять файлы к сообщениям
Вы не можете скачивать файлы