Новые раздачи

30-Ноя
30-Ноя
30-Ноя
30-Ноя
29-Ноя
29-Ноя
29-Ноя
29-Ноя
29-Ноя
28-Ноя
28-Ноя
28-Ноя
28-Ноя
28-Ноя
28-Ноя

Важное

М.Росс - 12 вебинаров MindManager (2015) торрент

Ответить на тему
 
Автор Сообщение

Prescious ®

М.Росс | 12 вебинаров MindManager (2015) PCRec - Автор: М.Росс
Производство: Home video
Жанр: Бизнес обучение, программное обеспечение
Описание:
MindManager – одно из ведущих ПО по работе с информацией методом ментальных карт, созданных по аналогии с работой логики человеческого мозга.
С подробным описанием функционала ПО можно ознакомиться на https://www.mindmanager.com/ru/
В настоящем же релизе выложены 12 вэбинаров, в которых подробным образом разъясняются особенности работы с этим замечательным продуктом от Corel inc.
Содержание вэбинаров:
1. Знакомство с MindManager, Работа с информацией
2. Ускорение работы в MindManager
3. Мозговой штурм в MindManager
4. Управление проектами в MindManager
5. Презентации в MindManager
6. Интеграция Word с MindManager
7. Интеграция Excel с MindManager
8. Интеграция Outlook с MindManager
9. Описание бизнес процессов в MindManager
10. Совместная и удаленная работа в MindManager
11. Работа с формулами в MindManager
12. Нужные надстройки для MindManager
В папках помимо видеоуроков содержатся архивы с готовыми картами, формами, настройками, макросами и документы, позволяющие параллельно с просмотром вэбинаров осваивать MindManager и возможности работы с ментальными картами.
Продолжительность: ~24:50:00
Качество видео: PCRec
Язык озвучки: Русский
Видео: AVC/H.264, 1180х720, ~105 Kbps
Аудио: AAC, 2 ch, 53,6 Kbps

MediaInfo:

Формат                                   : MPEG-4
Профиль формата : Base Media / Version 2
Идентификатор кодека : mp42 (M4V /mp42/isom)
Размер файла : 90,4 Мбайт
Продолжительность : 1 ч. 18 м.
Общий поток : 161 Кбит/сек
Дата кодирования : UTC 2014-12-11 21:22:29
Дата пометки : UTC 2014-12-11 21:22:29
Видео
Идентификатор : 1
Формат : AVC
Формат/Информация : Advanced Video Codec
Профиль формата : High@L3.1
Настройки формата : CABAC / 4 Ref Frames
Параметр CABAC формата : Да
Параметр RefFrames формата : 4 кадра
Параметр GOP формата : M=1, N=75
Идентификатор кодека : avc1
Идентификатор кодека/Информация : Advanced Video Coding
Продолжительность : 1 ч. 18 м.
Продолжительность оригинала : 1 ч. 18 м.
Битрейт : 105 Кбит/сек
Ширина : 1 180 пикселей
Высота : 720 пикселей
Соотношение сторон : 16:10
Режим частоты кадров : Постоянный
Частота кадров : 15,000 кадров/сек
Цветовое пространство : YUV
Субдискретизация насыщенности : 4:2:0
Битовая глубина : 8 бит
Тип развёртки : Прогрессивная
Бит/(Пиксели*Кадры) : 0.008
Размер потока : 59,1 Мбайт (65%)
Размер потока оригинала : 59,1 Мбайт (65%)
Язык : English
Дата кодирования : UTC 2014-12-11 21:22:29
Дата пометки : UTC 2014-12-11 21:22:29
Цветовой диапазон : Limited
Основные цвета : BT.709
Характеристики трансфера : BT.709
Коэффициенты матрицы : BT.709
mdhd_Duration : 4727059
Codec configuration box : avcC
Аудио
Идентификатор : 2
Формат : AAC LC
Формат/Информация : Advanced Audio Codec Low Complexity
Идентификатор кодека : mp4a-40-2
Продолжительность : 1 ч. 18 м.
Продолжительность оригинала : 1 ч. 18 м.
Вид битрейта : Постоянный
Битрейт : 53,6 Кбит/сек
Каналы : 2 канала
Channel layout : L R
Частота : 44,1 КГц
Частота кадров : 43,066 кадра/сек (1024 SPF)
Метод сжатия : С потерями
Размер потока : 30,2 Мбайт (33%)
Размер потока оригинала : 30,2 Мбайт (33%)
Язык : English
Дата кодирования : UTC 2014-12-11 21:22:29
Дата пометки : UTC 2014-12-11 21:22:29
mdhd_Duration : 4727579
Скриншоты:
Скачать .torrent

Чтобы скачать торрент-файл

М.Росс - 12 вебинаров MindManager (2015)

Вам нужно Авторизоваться на сайте под своим логином. Если у Вы ещё не зарегистрированы, тогда Вам нужно пройти Регистрацию


Показать сообщения:    
Ответить на тему

Скачать М.Росс - 12 вебинаров MindManager (2015) торрент бесплатно. Отзывы, слив складчины.

Текущее время: Сегодня 21:37

Часовой пояс: GMT + 4



Вы не можете начинать темы
Вы не можете отвечать на сообщения
Вы не можете редактировать свои сообщения
Вы не можете удалять свои сообщения
Вы не можете голосовать в опросах
Вы не можете прикреплять файлы к сообщениям
Вы не можете скачивать файлы