Новые раздачи

29-Ноя
29-Ноя
28-Ноя
28-Ноя
28-Ноя
28-Ноя
28-Ноя
28-Ноя
28-Ноя
28-Ноя
28-Ноя
28-Ноя
28-Ноя
28-Ноя
28-Ноя

Важное

Alexander Gol - Full-Stack разработка веб приложений с Java Spring и Angular (2021) торрент

Ответить на тему
 
Автор Сообщение

Prescious ®

Alexander Gol | Full-Stack разработка веб приложений с Java Spring и Angular (2021) PCRec - Автор: Alexander Gol
Производство: Udemy
Жанр: Программирование
Описание:
В данном курсе мы с Вами будем создавать веб приложение с использованием Java Spring и Angular. Мы получим все навыки чтобы создавать свои собственные приложения используя один из самый популярных стек технологий.
• Одни из основных тем нашего курса будет создание сервера c использованием REST API. Если вы не знакомы с REST API, то это возможность передавать данные через Интернет используя HTTP протокол. В данном курсе мы полностью с нуля создадим наши API и с сервера будем передавать данные на наше приложение в браузер.

Продолжение описания:

• Мы воспользуемся Spring Security для защиты нашего приложения с использованием JSON Web Token для авторизации наших пользователей. И дадим нашему пользователю возможность иметь Роли
• Мы так же подключим базу данных MySQL, куда будем сохранять данные
• Создадим User Interface с использованием одного из самых популярных фреймворков - Angular JS. Научимся принимать http данные, создавать сервисы и компоненты, где мы будет отображать или принимать данные наших пользователей и тд
• А самое главное мы научимся правильно подходить к решению тех или иных проблем, которые будут встречаться на нашем пути в создании нашего приложение.
В конце курса у вас будет намного больше, чем просто пониманием как писать код. Что даст вам возможностью создавать более сложные приложения с более комплексным и интересным функционалом для пользователей. И надеюсь откроет Вам большие горизонты.
Продолжительность: ~00:16:00 (видеоурок)
Качество видео: PCRec
Видео: AVC/H.264, 1280x720, ~1000 Kbps
Аудио: AAC, 2 ch, 128 Kbps

MediaInfo:

Общее
Полное имя : Z:\Sliff\ [Udemy] Alexander Gol - Full-Stack разработка веб приложений с Java Spring и Angular (2021)\ 5. JAVA Создаем Сервисы\4. Image Сервис.mp4
Формат : MPEG-4
Профиль формата : Base Media
Идентификатор кодека : isom (isom/iso2/avc1/mp41)
Размер файла : 178 Мбайт
Продолжительность : 17 м. 25 с.
Общий поток : 1 427 Кбит/сек
Программа кодирования : Lavf58.12.100
Видео
Идентификатор : 1
Формат : AVC
Формат/Информация : Advanced Video Codec
Профиль формата : Main@L3.1
Настройки формата : CABAC / 4 Ref Frames
Параметр CABAC формата : Да
Параметр RefFrames формата : 4 кадра
Идентификатор кодека : avc1
Идентификатор кодека/Информация : Advanced Video Coding
Продолжительность : 17 м. 25 с.
Битрейт : 1 290 Кбит/сек
Номинальный битрейт : 3 000 Кбит/сек
Ширина : 1 280 пикселей
Высота : 720 пикселей
Соотношение сторон : 16:9
Режим частоты кадров : Постоянный
Частота кадров : 30,000 кадров/сек
Цветовое пространство : YUV
Субдискретизация насыщенности : 4:2:0
Битовая глубина : 8 бит
Тип развёртки : Прогрессивная
Бит/(Пиксели*Кадры) : 0.047
Размер потока : 161 Мбайт (90%)
Библиотека кодирования : x264 core 148
Настройки программы : cabac=1 / ref=3 / deblock=1:0:0 / analyse=0x1:0x111 / me=umh / subme=6 / psy=1 / psy_rd=1.00:0.00 / mixed_ref=1 / me_range=16 / chroma_me=1 / trellis=1 / 8x8dct=0 / cqm=0 / deadzone=21,11 / fast_pskip=1 / chroma_qp_offset=-2 / threads=22 / lookahead_threads=3 / sliced_threads=0 / nr=0 / decimate=1 / interlaced=0 / bluray_compat=0 / constrained_intra=0 / bframes=3 / b_pyramid=2 / b_adapt=1 / b_bias=0 / direct=1 / weightb=1 / open_gop=0 / weightp=2 / keyint=60 / keyint_min=6 / scenecut=0 / intra_refresh=0 / rc_lookahead=60 / rc=cbr / mbtree=1 / bitrate=3000 / ratetol=1.0 / qcomp=0.60 / qpmin=0 / qpmax=69 / qpstep=4 / vbv_maxrate=3000 / vbv_bufsize=6000 / nal_hrd=none / filler=0 / ip_ratio=1.40 / aq=1:1.00
Codec configuration box : avcC
Аудио
Идентификатор : 2
Формат : AAC LC
Формат/Информация : Advanced Audio Codec Low Complexity
Идентификатор кодека : mp4a-40-2
Продолжительность : 17 м. 25 с.
Вид битрейта : Постоянный
Битрейт : 128 Кбит/сек
Каналы : 2 канала
Channel layout : L R
Частота : 44,1 КГц
Частота кадров : 43,066 кадра/сек (1024 SPF)
Метод сжатия : С потерями
Размер потока : 16,0 Мбайт (9%)
Default : Да
Alternate group : 1
Скриншоты:
Скачать .torrent

Чтобы скачать торрент-файл

Alexander Gol - Full-Stack разработка веб приложений с Java Spring и Angular (2021)

Вам нужно Авторизоваться на сайте под своим логином. Если у Вы ещё не зарегистрированы, тогда Вам нужно пройти Регистрацию


Показать сообщения:    
Ответить на тему

Скачать Alexander Gol - Full-Stack разработка веб приложений с Java Spring и Angular (2021) торрент бесплатно. Отзывы, слив складчины.

Текущее время: Сегодня 10:46

Часовой пояс: GMT + 4



Вы не можете начинать темы
Вы не можете отвечать на сообщения
Вы не можете редактировать свои сообщения
Вы не можете удалять свои сообщения
Вы не можете голосовать в опросах
Вы не можете прикреплять файлы к сообщениям
Вы не можете скачивать файлы