Новые раздачи

29-Ноя
29-Ноя
29-Ноя
28-Ноя
28-Ноя
28-Ноя
28-Ноя
28-Ноя
28-Ноя
28-Ноя
28-Ноя
28-Ноя
28-Ноя
28-Ноя
28-Ноя

Важное

Kolt Wilson - Exploring Houdini's SOP Solver (2017) торрент

Ответить на тему
 
Автор Сообщение

Prescious ®

Kolt Wilson | Exploring Houdini's SOP Solver (2017) PCRec [En, Ru] - Автор: Kolt Wilson
Производство: Pluralsight
Жанр: Создание видео
Описание:
SOP Solver в Houdini это стандартный инструмент процедурного моделирования. В этом курсе вы узнаете, как создавать точки, примитивы и вершины с помощью VEX. Для начала вы разберете некоторые базовые принципы векторной алгебры, чтобы у вас было достаточно знаний для создания солвера, образующего разветвления проводов. Дальше вы перейдете к практике и узнаете несколько техник использования SOP Solver. И наконец вы увидите готовый сетап, кторый можно применить в различных ситуациях. Этот курс даст вам несколько очень ценных практических навыков и знания, которые помогут вам применить эти навыки на практике.
Продолжительность: 02:12:00
Качество видео: PCRec
Язык озвучки: Английский, Русский
Видео: AVC/H.264, 1280x720, ~612kbps
Аудио: AAC, 2 ch, 95kbps
Аудио 2: MP3, 2 ch, 96kbps (отдельным файлом)

MediaInfo:

General
Complete name : K:\[Pluralsight] Exploring Houdini's SOP Solver [ENG-RUS]\01 - Course Overview.mp4
Format : MPEG-4
Format profile : Base Media / Version 2
Codec ID : mp42 (isom/iso2/avc1/mp41/mp42)
File size : 5.13 MiB
Duration : 1 min 0 s
Overall bit rate : 712 kb/s
Encoded date : UTC 2017-09-06 17:30:51
Tagged date : UTC 2017-09-06 17:30:51
Writing application : Lavf53.32.100
Video
ID : 1
Format : AVC
Format/Info : Advanced Video Codec
Format profile : High@L4
Format settings : CABAC / 8 Ref Frames
Format settings, CABAC : Yes
Format settings, Reference fra : 8 frames
Codec ID : avc1
Codec ID/Info : Advanced Video Coding
Duration : 1 min 0 s
Bit rate : 612 kb/s
Width : 1 280 pixels
Height : 720 pixels
Display aspect ratio : 16:9
Frame rate mode : Constant
Frame rate : 30.000 FPS
Color space : YUV
Chroma subsampling : 4:2:0
Bit depth : 8 bits
Scan type : Progressive
Bits/(Pixel*Frame) : 0.022
Stream size : 4.41 MiB (86%)
Writing library : x264 core 136
Encoding settings : cabac=1 / ref=8 / deblock=1:0:0 / analyse=0x3:0x113 / me=umh / subme=6 / psy=0 / mixed_ref=1 / me_range=16 / chroma_me=1 / trellis=0 / 8x8dct=1 / cqm=0 / deadzone=21,11 / fast_pskip=1 / chroma_qp_offset=0 / threads=36 / lookahead_threads=5 / sliced_threads=0 / nr=0 / decimate=1 / interlaced=0 / bluray_compat=0 / constrained_intra=0 / bframes=3 / b_pyramid=2 / b_adapt=1 / b_bias=0 / direct=1 / weightb=1 / open_gop=0 / weightp=0 / keyint=60 / keyint_min=30 / scenecut=0 / intra_refresh=0 / rc_lookahead=40 / rc=crf / mbtree=1 / crf=20.0 / qcomp=0.60 / qpmin=10 / qpmax=51 / qpstep=4 / ip_ratio=1.40 / aq=1:1.00
Language : English
Encoded date : UTC 2017-09-06 17:30:51
Tagged date : UTC 2017-09-06 17:45:22
Codec configuration box : avcC
Audio
ID : 2
Format : AAC LC
Format/Info : Advanced Audio Codec Low Complexity
Codec ID : mp4a-40-2
Duration : 1 min 0 s
Bit rate mode : Constant
Bit rate : 96.0 kb/s
Channel(s) : 2 channels
Channel layout : L R
Sampling rate : 44.1 kHz
Frame rate : 43.066 FPS (1024 SPF)
Compression mode : Lossy
Stream size : 709 KiB (13%)
Language : English
Default : Yes
Alternate group : 1
Encoded date : UTC 2017-09-06 17:30:51
Tagged date : UTC 2017-09-06 17:45:22

Дополнительная информация:

Программное обеспечение: Houdini 16
Файлы примеров: Есть
Скриншоты:

Дополнительные скриншоты:

Скачать .torrent

Чтобы скачать торрент-файл

Kolt Wilson - Exploring Houdini's SOP Solver (2017)

Вам нужно Авторизоваться на сайте под своим логином. Если у Вы ещё не зарегистрированы, тогда Вам нужно пройти Регистрацию


Показать сообщения:    
Ответить на тему

Скачать Kolt Wilson - Exploring Houdini's SOP Solver (2017) торрент бесплатно. Отзывы, слив складчины.

Текущее время: Сегодня 12:46

Часовой пояс: GMT + 4



Вы не можете начинать темы
Вы не можете отвечать на сообщения
Вы не можете редактировать свои сообщения
Вы не можете удалять свои сообщения
Вы не можете голосовать в опросах
Вы не можете прикреплять файлы к сообщениям
Вы не можете скачивать файлы