David Kahl - Houdini: VEX Fundamentals (2018) торрент

Ответить на тему
 
Автор Сообщение

Prescious ®

David Kahl | Houdini: VEX Fundamentals (2018) PCRec [En, Ru] - Автор: David Kahl
Производство: Pluralsight
Жанр: Создание видео
Описание:
При входе в мир Houdini вы быстро столкнетесь с VEX как часто используемым инструментом для решения детальных проблем. На первый взгляд VEX может показаться слишком сложным предметом, когда вы только начинаете с ним работать. В этом курсе, посвященном основам VEX, вы узнаете, как подойти к нему, как к любому другому языку программирования. Во-первых, вы изучите синтаксис и среду программирования. Затем вы поближе познакомитесь со словарем этого языка и его назначением, что для VEX означает использование доступных функций для чтения и обработки данных. Позже вы изучите, как применять эти функции в проекте на основе VEX. Наконец, вы погрузитесь в создание процедурного генератора sci-fi коридора, который опирается на запрограммированное принятие решений, чтобы строиться с помощью нового набора инструментов. По завершении этого курса у вас будут фундаментальные знания, позволяющие использовать VEX как дополнительный инструмент в рабочих процессах.
Продолжительность: 07:27:00
Качество видео: PCRec
Язык озвучки: Английский, Русский
Видео: AVC/H.264, 1280x720, ~447kbps
Аудио: AAC, 2 ch, 95kbps
Аудио 2: MP3, 2 ch, 128kbps (отдельным файлом)

MediaInfo:

General
Complete name : K:\[Pluralsight] Houdini VEX Fundamentals [ENG-RUS]\01 - Course Overview.mp4
Format : MPEG-4
Format profile : Base Media / Version 2
Codec ID : mp42 (isom/iso2/avc1/mp41/mp42)
File size : 4.43 MiB
Duration : 1 min 7 s
Overall bit rate : 547 kb/s
Encoded date : UTC 2018-05-03 13:54:34
Tagged date : UTC 2018-05-03 13:54:34
Writing application : Lavf53.32.100
Video
ID : 1
Format : AVC
Format/Info : Advanced Video Codec
Format profile : High@L4
Format settings : CABAC / 8 Ref Frames
Format settings, CABAC : Yes
Format settings, Reference fra : 8 frames
Codec ID : avc1
Codec ID/Info : Advanced Video Coding
Duration : 1 min 7 s
Bit rate : 448 kb/s
Width : 1 280 pixels
Height : 720 pixels
Display aspect ratio : 16:9
Frame rate mode : Constant
Frame rate : 30.000 FPS
Color space : YUV
Chroma subsampling : 4:2:0
Bit depth : 8 bits
Scan type : Progressive
Bits/(Pixel*Frame) : 0.016
Stream size : 3.62 MiB (82%)
Writing library : x264 core 136
Encoding settings : cabac=1 / ref=8 / deblock=1:0:0 / analyse=0x3:0x113 / me=umh / subme=6 / psy=0 / mixed_ref=1 / me_range=16 / chroma_me=1 / trellis=0 / 8x8dct=1 / cqm=0 / deadzone=21,11 / fast_pskip=1 / chroma_qp_offset=0 / threads=36 / lookahead_threads=5 / sliced_threads=0 / nr=0 / decimate=1 / interlaced=0 / bluray_compat=0 / constrained_intra=0 / bframes=3 / b_pyramid=2 / b_adapt=1 / b_bias=0 / direct=1 / weightb=1 / open_gop=0 / weightp=0 / keyint=60 / keyint_min=30 / scenecut=0 / intra_refresh=0 / rc_lookahead=40 / rc=crf / mbtree=1 / crf=20.0 / qcomp=0.60 / qpmin=10 / qpmax=51 / qpstep=4 / ip_ratio=1.40 / aq=1:1.00
Language : English
Encoded date : UTC 2018-05-03 13:54:34
Tagged date : UTC 2018-05-14 15:30:33
Codec configuration box : avcC
Audio
ID : 2
Format : AAC LC
Format/Info : Advanced Audio Codec Low Complexity
Codec ID : mp4a-40-2
Duration : 1 min 7 s
Bit rate mode : Constant
Bit rate : 96.0 kb/s
Channel(s) : 2 channels
Channel layout : L R
Sampling rate : 44.1 kHz
Frame rate : 43.066 FPS (1024 SPF)
Compression mode : Lossy
Stream size : 793 KiB (17%)
Language : English
Default : Yes
Alternate group : 1
Encoded date : UTC 2018-05-03 13:54:34
Tagged date : UTC 2018-05-14 15:30:33

Дополнительная информация:

Программное обеспечение: Houdini 16
Файлы примеров: Есть
Скриншоты:

Дополнительные скриншоты:

Скачать .torrent

Чтобы скачать торрент-файл

David Kahl - Houdini: VEX Fundamentals (2018)

Вам нужно Авторизоваться на сайте под своим логином. Если у Вы ещё не зарегистрированы, тогда Вам нужно пройти Регистрацию


Показать сообщения:    
Ответить на тему

Скачать David Kahl - Houdini: VEX Fundamentals (2018) торрент бесплатно. Отзывы, слив складчины.

Текущее время: Сегодня 17:37

Часовой пояс: GMT + 4



Вы не можете начинать темы
Вы не можете отвечать на сообщения
Вы не можете редактировать свои сообщения
Вы не можете удалять свои сообщения
Вы не можете голосовать в опросах
Вы не можете прикреплять файлы к сообщениям
Вы не можете скачивать файлы