Марина Трушникова - Карандашные фантазии (2020) торрент

Ответить на тему
 
Автор Сообщение

Prescious ®

Марина Трушникова | Карандашные фантазии (2020) - Автор: Марина Трушникова
Жанр: Рисование
Описание:
Карандаш очень прост в обращении, легко поддаётся исправлению. А в совокупности с придуманной мной техникой, он ещё и будит фантазию!
И не нужно пыжиться, что-то выдумывать, размышлять о композиции. Рисунок как-бы рождается сам!! Из карандашных штрихов возникает переплетение пространств, из глубин подсознания всплывает образ, и, вуаля, ты вдруг видишь перед собой рисунок, поражающий сложностью образов и фактур! Это похоже на волшебство!
Продолжительность: 02:56:46
Видео: AVC/H.264, 720x1280, 24fps, ~1 159 Кбит/сек
Аудио: AAC, 2 ch, 137 Кбит/сек

MediaInfo:

Общее
Полное имя : D:\Курс\[Марина Трушникова] Карандашные фантазии (2020)\02_4 Переплетение пространств.mp4
Формат : MPEG-4
Профиль формата : Base Media / Version 2
Идентификатор кодека : mp42 (mp42/mp41/isom/avc1)
Размер файла : 190 Мбайт
Продолжительность : 20 м. 23 с.
Режим общего битрейта : Переменный
Общий поток : 1 300 Кбит/сек
Дата кодирования : UTC 2019-05-20 12:01:52
Дата пометки : UTC 2019-05-20 12:01:52
Видео
Идентификатор : 1
Формат : AVC
Формат/Информация : Advanced Video Codec
Профиль формата : High@L3.2
Настройки формата : CABAC / 5 Ref Frames
Параметр CABAC формата : Да
Параметр RefFrames формата : 5 кадров
Идентификатор кодека : avc1
Идентификатор кодека/Информация : Advanced Video Coding
Продолжительность : 20 м. 23 с.
Битрейт : 1 159 Кбит/сек
Ширина : 1 280 пикселей
Высота : 720 пикселей
Соотношение сторон : 16:9
Режим частоты кадров : Постоянный
Частота кадров : 24,000 кадра/сек
Цветовое пространство : YUV
Субдискретизация насыщенности : 4:2:0
Битовая глубина : 8 бит
Тип развёртки : Прогрессивная
Бит/(Пиксели*Кадры) : 0.052
Размер потока : 169 Мбайт (89%)
Библиотека кодирования : x264 core 157 r10 d4099dd
Настройки программы : cabac=1 / ref=5 / deblock=1:0:0 / analyse=0x3:0x113 / me=hex / subme=8 / psy=1 / psy_rd=1.00:0.00 / mixed_ref=1 / me_range=16 / chroma_me=1 / trellis=2 / 8x8dct=1 / cqm=0 / deadzone=21,11 / fast_pskip=1 / chroma_qp_offset=-2 / threads=22 / lookahead_threads=3 / sliced_threads=0 / nr=0 / decimate=1 / interlaced=0 / bluray_compat=0 / stitchable=1 / constrained_intra=0 / bframes=3 / b_pyramid=2 / b_adapt=2 / b_bias=0 / direct=3 / weightb=1 / open_gop=0 / weightp=2 / keyint=infinite / keyint_min=24 / scenecut=40 / intra_refresh=0 / rc_lookahead=50 / rc=crf / mbtree=1 / crf=20.0 / qcomp=0.60 / qpmin=5 / qpmax=69 / qpstep=4 / vbv_maxrate=2750 / vbv_bufsize=7500 / crf_max=0.0 / nal_hrd=none / filler=0 / ip_ratio=1.40 / aq=1:1.00
Дата кодирования : UTC 2019-05-20 12:01:52
Дата пометки : UTC 2019-05-20 12:01:52
Цветовой диапазон : Limited
Основные цвета : BT.709
Характеристики трансфера : BT.709
Коэффициенты матрицы : BT.709
Codec configuration box : avcC
Аудио
Идентификатор : 2
Формат : AAC LC
Формат/Информация : Advanced Audio Codec Low Complexity
Идентификатор кодека : mp4a-40-2
Продолжительность : 20 м. 23 с.
Вид битрейта : Переменный
Битрейт : 137 Кбит/сек
Каналы : 2 канала
Channel layout : L R
Частота : 48,0 КГц
Частота кадров : 46,875 кадров/сек (1024 SPF)
Метод сжатия : С потерями
Размер потока : 20,0 Мбайт (11%)
Дата кодирования : UTC 2019-05-20 12:01:52
Дата пометки : UTC 2019-05-20 12:01:52

Для кого этот курс:

ДЛЯ КОГО ЭТОТ КУРС?
•Любителям карандашных рисунков и графики
•Всем, кто любит фэнтази, сказки, истории про путешествия между мирами
•Иллюстраторам
•Людям, интересующимся всем новым, и тем, кто готов нырнуть в глубины своего подсознания
РЕЗУЛЬТАТЫ КУРСА:
•Вы познакомитесь с секретами моей авторской техники создания фантазийных рисунков.
•Освоите графические приёмы работы карандашом.
•Сможете создавать сложные рисунки с переплетением форм, с передачей глубины космических пространств.
•Научитесь возбуждать свою фантазию, легко создавать образы «из ничего».
•Сможете рисовать сложные фантазийные рисунки с включением нескольких сюжетов, с переплетением пространств, с изображением сложных фактур.
Скриншоты:
Скачать .torrent

Чтобы скачать торрент-файл

Марина Трушникова - Карандашные фантазии (2020)

Вам нужно Авторизоваться на сайте под своим логином. Если у Вы ещё не зарегистрированы, тогда Вам нужно пройти Регистрацию


Показать сообщения:    
Ответить на тему

Скачать Марина Трушникова - Карандашные фантазии (2020) торрент бесплатно. Отзывы, слив складчины.

Текущее время: Сегодня 11:15

Часовой пояс: GMT + 4



Вы не можете начинать темы
Вы не можете отвечать на сообщения
Вы не можете редактировать свои сообщения
Вы не можете удалять свои сообщения
Вы не можете голосовать в опросах
Вы не можете прикреплять файлы к сообщениям
Вы не можете скачивать файлы