highlights - Цифровой рисунок в Photoshop (2018) торрент

Ответить на тему
 
Автор Сообщение

Prescious ®

highlights | Цифровой рисунок в Photoshop (2018)- Автор: highlights
Жанр: Рисование
Описание:
Этот курс идеален для тех, кто хочет научиться рисовать в Photoshop! Преподаватель с огромным опытом Анастасия Васильева объяснит и покажет, как рисовать в программе Adobe Photoshop, даже если до этого вы никогда не открывали эту программу. За 2 месяца вы не только узнаете основы основ рисунка, работы с инструментами, применения референсов, но и примените на практике полученные знания, которые делают работы даже начинающего 2D-художника волшебными. На каждом занятии вы не только узнаете новую и интересную информацию, но и попробуете все сами, на практике в виде домашних заданий, а так же получите обратную связь от преподавателя.
Продолжительность: 12:56:00
Видео: AVC/H.264, 720x1280, 30fps, ~1 228 Кбит/сек
Аудио: AAC, 2 ch, 253 Кбит/сек

MediaInfo:

Общее
Полное имя : D:\Курс\[Highlights] Цифровой рисунок в Photoshop (2018)\ Урок 8. Логика костюма. Доспехи\ Урок 8.mp4
Формат : MPEG-4
Профиль формата : Base Media / Version 2
Идентификатор кодека : mp42 (mp42/mp41)
Размер файла : 801 Мбайт
Продолжительность : 1 ч. 15 м.
Режим общего битрейта : Переменный
Общий поток : 1 486 Кбит/сек
Дата кодирования : UTC 2018-04-18 11:19:21
Дата пометки : UTC 2018-04-18 11:20:21
TIM : 00:00:00:00
TSC : 30
TSZ : 1
Видео
Идентификатор : 1
Формат : AVC
Формат/Информация : Advanced Video Codec
Профиль формата : High@L3.1
Настройки формата : CABAC / 3 Ref Frames
Параметр CABAC формата : Да
Параметр RefFrames формата : 3 кадра
Параметр GOP формата : M=3, N=60
Идентификатор кодека : avc1
Идентификатор кодека/Информация : Advanced Video Coding
Продолжительность : 1 ч. 15 м.
Вид битрейта : Переменный
Битрейт : 1 228 Кбит/сек
Максимальный битрейт : 16,3 Мбит/сек
Ширина : 1 280 пикселей
Высота : 690 пикселей
Соотношение сторон : 1,85:1
Режим частоты кадров : Постоянный
Частота кадров : 30,000 кадров/сек
Стандарт вещания : NTSC
Цветовое пространство : YUV
Субдискретизация насыщенности : 4:2:0
Битовая глубина : 8 бит
Тип развёртки : Прогрессивная
Бит/(Пиксели*Кадры) : 0.046
Размер потока : 662 Мбайт (83%)
Язык : English
Дата кодирования : UTC 2018-04-18 11:19:21
Дата пометки : UTC 2018-04-18 11:19:21
Цветовой диапазон : Limited
Основные цвета : BT.709
Характеристики трансфера : BT.709
Коэффициенты матрицы : BT.709
Codec configuration box : avcC
Аудио
Идентификатор : 2
Формат : AAC LC
Формат/Информация : Advanced Audio Codec Low Complexity
Идентификатор кодека : mp4a-40-2
Продолжительность : 1 ч. 15 м.
Продолжительность оригинала : 1 ч. 15 м.
Вид битрейта : Переменный
Битрейт : 253 Кбит/сек
Максимальный битрейт : 344 Кбит/сек
Каналы : 2 канала
Channel layout : L R
Частота : 48,0 КГц
Частота кадров : 46,875 кадров/сек (1024 SPF)
Метод сжатия : С потерями
Размер потока : 137 Мбайт (17%)
Размер потока оригинала : 137 Мбайт (17%)
Язык : English
Дата кодирования : UTC 2018-04-18 11:19:21
Дата пометки : UTC 2018-04-18 11:19:21

Дополнительная информация:

Урок 1: Технический рисунок
-Знакомство с техническим рисунком. Работа на любом этапе должна выглядеть завершенной.
-Быстрое освоение работы с Photoshop. Преимущества, простота и скорость.
Урок 2: Объем
-Выявляем объем
-Тональный рисунок
Урок 3: Текстура
-Текстура как детализация объекта и его узнаваемость
-Текстура как качественное улучшение работы или визуальный эффект
Урок 4: Цвет
-Немного цветоведения
-Подход к цветовому решению. Работаем с собственной палитрой.
Урок 5: Объекты
-От идеи к референсам. Создаем концепцию
-Стилизация
Урок 6: Локации
-Компоновка объектов или композиционное решение. Окружение
-Передаем настроение через антураж
Урок 7: Анатомия и концепт персонажа
-Разбор анатомии
-Создание концепта персонажа на основе анатомических структур
Урок 8: Логика костюма. Доспехи
-Основа логики костюма. Варианты.
-Устройство доспехов.
Урок 9: Подготовка к дипломной работе
-Рисунок от концепта до финала
-Создание портфолио на сервисе для людей творческих профессий.
Скриншоты:
Скачать .torrent

Чтобы скачать торрент-файл

highlights - Цифровой рисунок в Photoshop (2018)

Вам нужно Авторизоваться на сайте под своим логином. Если у Вы ещё не зарегистрированы, тогда Вам нужно пройти Регистрацию


Показать сообщения:    
Ответить на тему

Скачать highlights - Цифровой рисунок в Photoshop (2018) торрент бесплатно. Отзывы, слив складчины.

Текущее время: Сегодня 10:25

Часовой пояс: GMT + 4



Вы не можете начинать темы
Вы не можете отвечать на сообщения
Вы не можете редактировать свои сообщения
Вы не можете удалять свои сообщения
Вы не можете голосовать в опросах
Вы не можете прикреплять файлы к сообщениям
Вы не можете скачивать файлы