Новые раздачи

26-Ноя
26-Ноя
26-Ноя
25-Ноя
25-Ноя
25-Ноя
25-Ноя
24-Ноя
24-Ноя
24-Ноя
24-Ноя
24-Ноя
24-Ноя
24-Ноя
24-Ноя

Важное

Азамат Ушанов - Золотой актив (2017) торрент

Ответить на тему
 
Автор Сообщение

Prescious ®

Азамат Ушанов | Золотой актив (2017) WEB-DL - Автор: Азамат Ушанов
Жанр: Тренинг
Описание:
Моё главное отличие - я даю весь материал ПОШАГОВО в формате "Шаг 1", "Шаг 2", "Шаг 3".
Да, нет никаких историй, камеди-клаба и т.п.
Золотой актив - это отнюдь не развлекуха и хихи-хаха.
А плотная работа, дающая результат!
Более того, ни только я один даю материал в жёсткой, пошаговой форме, но и требую этого и от приглашенных экспертов!
В итоге после просмотра каждого выступления у вас наступит ясность в голове, и есть чёткое понимание, что и как нужно делать для результата!
Пошаговость изложения материала в виде лёгких алгоритмов и формул - вот, что делает "Золотой актив" одним из лучших тренингов в индустрии российского инфомаркетинга!
В этом году помимо меня на мероприятии выступали самые настоящие "динозавры" российского интернет-бизнеса.
Люди, имеющие гигантский личный опыт, а не вонючие конспекты с американских конференций!
Ссылка: http://zolotoiaktiv.ru
Продолжительность: 13:03:41
Качество видео: WEB-DL
Видео: AVC/H.264, 1280x720, ~2391 kbps
Аудио: AAC, 2 ch, 192 Kbps

MediaInfo:

Video
ID : 2
Format : AVC
Format/Info : Advanced Video Codec
Format profile : High@L4
Format settings, CABAC : Yes
Format settings, ReFrames : 2 frames
Format settings, GOP : M=2, N=13
Codec ID : avc1
Codec ID/Info : Advanced Video Coding
Duration : 45 min
Bit rate mode : Variable
Bit rate : 2 391 kb/s
Maximum bit rate : 3 000 kb/s
Width : 1 280 pixels
Height : 720 pixels
Display aspect ratio : 16:9
Frame rate mode : Constant
Frame rate : 25.000 FPS
Color space : YUV
Chroma subsampling : 4:2:0
Bit depth : 8 bits
Scan type : Progressive
Bits/(Pixel*Frame) : 0.104
Stream size : 784 MiB (92%)
Language : English
Encoded date : UTC 2017-10-04 07:34:39
Tagged date : UTC 2017-10-04 07:34:39
Audio
ID : 1
Format : AAC
Format/Info : Advanced Audio Codec
Format profile : LC
Codec ID : 40
Duration : 45 min
Bit rate mode : Constant
Bit rate : 192 kb/s
Channel(s) : 2 channels
Channel positions : Front: L R
Sampling rate : 48.0 kHz
Frame rate : 46.875 FPS (1024 spf)
Compression mode : Lossy
Stream size : 63.0 MiB (7%)
Language : English
Encoded date : UTC 2017-10-04 07:34:39
Tagged date : UTC 2017-10-04 07:34:39
Скриншоты:
Скачать .torrent

Чтобы скачать торрент-файл

Азамат Ушанов - Золотой актив (2017)

Вам нужно Авторизоваться на сайте под своим логином. Если у Вы ещё не зарегистрированы, тогда Вам нужно пройти Регистрацию


Показать сообщения:    
Ответить на тему

Скачать Азамат Ушанов - Золотой актив (2017) торрент бесплатно. Отзывы, слив складчины.

Текущее время: Сегодня 13:47

Часовой пояс: GMT + 4



Вы не можете начинать темы
Вы не можете отвечать на сообщения
Вы не можете редактировать свои сообщения
Вы не можете удалять свои сообщения
Вы не можете голосовать в опросах
Вы не можете прикреплять файлы к сообщениям
Вы не можете скачивать файлы