Евгений Горбатов - Личный коучинг по email рассылкам (2018) торрент

Ответить на тему
 
Автор Сообщение

Prescious ®

Евгений Горбатов | Личный коучинг по email рассылкам (2018) PCRec - Автор: Евгений Горбатов
Жанр: Видеокурсы
Описание:
Личный коучинг по email рассылкам (2018) PCRec
Сам курс - это серия видео-уроков, записанных мною, выполняя которые, шаг за шагом, вы начинаете разбираться в email рассылках.
Темы курса:
Настройка удаленного Виндовс
Настройка серверов рассылки
Запуск рассылок
Решение проблем при рассылке
Продолжительность: 11:00:00
Качество видео: PCRec
Видео: AVC/H.264, 4096х2194, ~6379 kbps
Аудио: AAC, 2 ch, 256 kbps

MediaInfo:

Video
ID : 1
Format : AVC
Format/Info : Advanced Video Codec
Format profile : Main@L5.2
Format settings, CABAC : Yes
Format settings, ReFrames : 2 frames
Format settings, GOP : M=1, N=25
Codec ID : avc1
Codec ID/Info : Advanced Video Coding
Duration : 1 h 2 min
Duration_LastFrame : -23 ms
Bit rate mode : Variable
Bit rate : 6 379 kb/s
Maximum bit rate : 768 kb/s
Width : 4 096 pixels
Height : 2 194 pixels
Display aspect ratio : 1.85:1
Frame rate mode : Constant
Frame rate : 30.000 FPS
Original frame rate : 25.000 FPS
Color space : YUV
Chroma subsampling : 4:2:0
Bit depth : 8 bits
Scan type : Progressive
Bits/(Pixel*Frame) : 0.024
Stream size : 2.80 GiB (96%)
Audio
ID : 2
Format : AAC
Format/Info : Advanced Audio Codec
Format profile : LC
Codec ID : 40
Duration : 1 h 2 min
Bit rate mode : Constant
Bit rate : 256 kb/s
Channel(s) : 2 channels
Channel positions : Front: L R
Sampling rate : 44.1 kHz
Frame rate : 43.066 FPS (1024 spf)
Compression mode : Lossy
Stream size : 115 MiB (4%)
Default : Yes
Alternate group : 1
Скриншоты:
Скачать .torrent

Чтобы скачать торрент-файл

Евгений Горбатов - Личный коучинг по email рассылкам (2018)

Вам нужно Авторизоваться на сайте под своим логином. Если у Вы ещё не зарегистрированы, тогда Вам нужно пройти Регистрацию


Показать сообщения:    
Ответить на тему

Скачать Евгений Горбатов - Личный коучинг по email рассылкам (2018) торрент бесплатно. Отзывы, слив складчины.

Текущее время: Сегодня 05:53

Часовой пояс: GMT + 4



Вы не можете начинать темы
Вы не можете отвечать на сообщения
Вы не можете редактировать свои сообщения
Вы не можете удалять свои сообщения
Вы не можете голосовать в опросах
Вы не можете прикреплять файлы к сообщениям
Вы не можете скачивать файлы