Новые раздачи

03-Окт
03-Окт
03-Окт
03-Окт
03-Окт
03-Окт
03-Окт
03-Окт
03-Окт
03-Окт
03-Окт
03-Окт
03-Окт
03-Окт
03-Окт

Важное

Александр Коваленко - Видео Энциклопедия: Мир ремонта. [2 диска] (2008) торрент

Ответить на тему
 
Автор Сообщение

Prescious ®

Александр Коваленко | Видео Энциклопедия: Мир ремонта. [2 диска] (2008) DVDRip - Автор: Александр Коваленко
Жанр: Учебный фильм
Описание:
Видео энциклопедия «Мир Ремонта» - первый и единственный в своем роде проект. Его основная идея - создание серии видеосюжетов, в доступной форме рассказывающих о ремонте. В видео энциклопедии можно найти практически все: технологию производства строительных работ, канализацию, водоснабжение, электроснабжение, окна, двери, ванные комнаты, устройство стен, перегородок, дверных проемов, выравнивание стен, потолков, чистовая отделка стен и пола,
проведение сигнализации, новые технологии и современные материалы и многое-многое другое.
Вам подробно покажут и расскажут о том, как выбрать качественные стройматериалы, уложить паркет, пробку или ламинат, смонтировать подвесные потолки или стеновые панели, а также как устранить возможные дефекты и правильно ухаживать за помещением после окончания ремонта.
Знания, полученные с помощью этого фильма, помогут квалифицированно провести переговоры с руководителем рабочей бригады, определиться с бюджетом предстоящих работ и избежать досадных ошибок!
Продолжительность: 03:24:52
Качество видео: DVDRip
Видео: Xvid, 512х384, ~775 kbps
Аудио: MP3, 2 ch, 114 Kbps

MediaInfo:

Video
ID : 0
Format : MPEG-4 Visual
Format profile : Advanced Simple@L5
Format settings, BVOP : 1
Format settings, QPel : No
Format settings, GMC : No warppoints
Format settings, Matrix : Custom
Codec ID : XVID
Codec ID/Hint : XviD
Duration : 1 h 48 min
Bit rate : 775 kb/s
Width : 512 pixels
Height : 384 pixels
Display aspect ratio : 4:3
Frame rate : 25.000 FPS
Color space : YUV
Chroma subsampling : 4:2:0
Bit depth : 8 bits
Scan type : Progressive
Compression mode : Lossy
Bits/(Pixel*Frame) : 0.158
Stream size : 601 MiB (86%)
Writing library : XviD 1.1.2 (UTC 2006-11-01)
Audio
ID : 1
Format : MPEG Audio
Format version : Version 1
Format profile : Layer 3
Mode : Joint stereo
Mode extension : MS Stereo
Codec ID : 55
Codec ID/Hint : MP3
Duration : 1 h 48 min
Bit rate mode : Variable
Bit rate : 114 kb/s
Nominal bit rate : 128 kb/s
Channel(s) : 2 channels
Sampling rate : 48.0 kHz
Compression mode : Lossy
Stream size : 88.6 MiB (13%)
Alignment : Aligned on interleaves
Interleave, duration : 24 ms (0.60 video frame)
Interleave, preload duratio : 524 ms
Writing library : LAME3.97
Encoding settings : -m j -V 4 -q 2 -lowpass 17 --abr 128
Language : Russian
Скриншоты:
Скачать .torrent

Чтобы скачать торрент-файл

Александр Коваленко - Видео Энциклопедия: Мир ремонта. [2 диска] (2008)

Вам нужно Авторизоваться на сайте под своим логином. Если у Вы ещё не зарегистрированы, тогда Вам нужно пройти Регистрацию


Показать сообщения:    
Ответить на тему

Скачать Александр Коваленко - Видео Энциклопедия: Мир ремонта. [2 диска] (2008) торрент бесплатно. Отзывы, слив складчины.

Текущее время: Сегодня 02:15

Часовой пояс: GMT + 4



Вы не можете начинать темы
Вы не можете отвечать на сообщения
Вы не можете редактировать свои сообщения
Вы не можете удалять свои сообщения
Вы не можете голосовать в опросах
Вы не можете прикреплять файлы к сообщениям
Вы не можете скачивать файлы