Новые раздачи

03-Окт
03-Окт
03-Окт
03-Окт
03-Окт
03-Окт
03-Окт
03-Окт
03-Окт
03-Окт
03-Окт
03-Окт
03-Окт
03-Окт
03-Окт

Важное

Олег Троицкий и др. - Молодой Архитектор - От проектирования зданий до визуализации экстерьера за 6 недель (2019) торрент

Ответить на тему
 
Автор Сообщение

Prescious ®

Олег Троицкий и др. | Молодой Архитектор - От проектирования зданий до визуализации экстерьера за 6 недель (2019) - Автор: Олег Троицкий и др.
Производство: Графикум
Жанр: Графика
Описание:
За 16 занятий разработаете проект с чертежами и обличите их в красивую графику, используя Revit, 3Ds Max, Corona Renderer, AutoCAD, Photoshop, InDesign.
Продолжительность: 29:58:04
Видео: AVC/H.264, 720x1280 - 1036-1920, 24fps, ~559 Кбит/сек
Аудио: AAC, 2 ch, 128 Кбит/сек

MediaInfo:

Общее
Полное имя : D:\Курс\000000000001\[Графиум] Молодой Архитектор. (2019)\ 10. 3Ds Max 4 занятие\3DS MAX 28 02 19.mp4
Формат : MPEG-4
Профиль формата : Base Media
Идентификатор кодека : isom (isom/iso2/avc1/mp41)
Размер файла : 544 Мбайт
Продолжительность : 1 ч. 50 м.
Режим общего битрейта : Переменный
Общий поток : 689 Кбит/сек
Дата кодирования : UTC 2019-03-01 15:40:15
Дата пометки : UTC 2019-03-01 15:40:15
Видео
Идентификатор : 1
Формат : AVC
Формат/Информация : Advanced Video Codec
Профиль формата : High@L4
Настройки формата : CABAC / 3 Ref Frames
Параметр CABAC формата : Да
Параметр RefFrames формата : 3 кадра
Идентификатор кодека : avc1
Идентификатор кодека/Информация : Advanced Video Coding
Продолжительность : 1 ч. 50 м.
Битрейт : 559 Кбит/сек
Ширина : 1 920 пикселей
Высота : 1 028 пикселей
Соотношение сторон : 1,85:1
Режим частоты кадров : Постоянный
Частота кадров : 24,000 кадра/сек
Цветовое пространство : YUV
Субдискретизация насыщенности : 4:2:0
Битовая глубина : 8 бит
Тип развёртки : Прогрессивная
Бит/(Пиксели*Кадры) : 0.012
Размер потока : 441 Мбайт (81%)
Заголовок : ISO Media file produced by Google Inc. Created on: 03/01/2019.
Дата кодирования : UTC 2019-03-01 15:40:15
Дата пометки : UTC 2019-03-01 15:40:15
Цветовой диапазон : Limited
Основные цвета : BT.709
Характеристики трансфера : BT.709
Коэффициенты матрицы : BT.709
Codec configuration box : avcC
Аудио
Идентификатор : 2
Формат : AAC LC
Формат/Информация : Advanced Audio Codec Low Complexity
Идентификатор кодека : mp4a-40-2
Продолжительность : 1 ч. 50 м.
Вид битрейта : Переменный
Битрейт : 128 Кбит/сек
Каналы : 2 канала
Channel layout : L R
Частота : 44,1 КГц
Частота кадров : 43,066 кадра/сек (1024 SPF)
Метод сжатия : С потерями
Размер потока : 101 Мбайт (19%)
Заголовок : ISO Media file produced by Google Inc. Created on: 03/01/2019.
Default : Да
Alternate group : 1
Дата кодирования : UTC 2019-03-01 15:40:12
Дата пометки : UTC 2019-03-01 15:40:12
Скриншоты:
Скачать .torrent

Чтобы скачать торрент-файл

Олег Троицкий и др. - Молодой Архитектор - От проектирования зданий до визуализации экстерьера за 6 недель (2019)

Вам нужно Авторизоваться на сайте под своим логином. Если у Вы ещё не зарегистрированы, тогда Вам нужно пройти Регистрацию


Показать сообщения:    
Ответить на тему

Скачать Олег Троицкий и др. - Молодой Архитектор - От проектирования зданий до визуализации экстерьера за 6 недель (2019) торрент бесплатно. Отзывы, слив складчины.

Текущее время: Сегодня 03:34

Часовой пояс: GMT + 4



Вы не можете начинать темы
Вы не можете отвечать на сообщения
Вы не можете редактировать свои сообщения
Вы не можете удалять свои сообщения
Вы не можете голосовать в опросах
Вы не можете прикреплять файлы к сообщениям
Вы не можете скачивать файлы