Олег Троицкий - Создай дизайн-проект квартиры твоей мечты за 15 занятий (2018) торрент

Ответить на тему
 
Автор Сообщение

Prescious ®

Олег Троицкий | Создай дизайн-проект квартиры твоей мечты за 15 занятий (2018) - Автор: Олег Троицкий
Жанр: Графика
Описание:
Мы создали тренинг для тех, кто хочет создать дизайн интерьера своей квартиры или комнаты, но не хочет тратить время на дорогостоящие курсы. Тренинг отлично подойдет тем, кто хочет почувствовать себя в "шкуре" дизайнера и это лучшее решение, чтобы начать действовать!
Продолжительность: 11:39:55
Видео: AVC/H.264, 1280x680-1280x720, 24fps, ~372 Кбит/сек
Аудио: AAC, 2 ch, 128 Кбит/сек

MediaInfo:

Общее
Полное имя : D:\Курс\000000000001\Практикум Дизайн-проекта с нуля\5. ДЕНЬ 5. Основы проектирования в программе SketchUp\7. Объединение, вычитание объектов, сложное деление.mp4
Формат : MPEG-4
Профиль формата : Base Media / Version 2
Идентификатор кодека : mp42 (isom/mp42)
Размер файла : 19,6 Мбайт
Продолжительность : 5 м. 25 с.
Режим общего битрейта : Переменный
Общий поток : 503 Кбит/сек
Дата кодирования : UTC 2018-05-20 22:46:59
Дата пометки : UTC 2018-05-20 22:46:59
gsst : 0
gstd : 326041
Видео
Идентификатор : 1
Формат : AVC
Формат/Информация : Advanced Video Codec
Профиль формата : Main@L3.1
Настройки формата : CABAC / 3 Ref Frames
Параметр CABAC формата : Да
Параметр RefFrames формата : 3 кадра
Идентификатор кодека : avc1
Идентификатор кодека/Информация : Advanced Video Coding
Продолжительность : 5 м. 25 с.
Битрейт : 372 Кбит/сек
Ширина : 1 280 пикселей
Высота : 678 пикселей
Соотношение сторон : 1,888
Режим частоты кадров : Постоянный
Частота кадров : 24,000 кадра/сек
Цветовое пространство : YUV
Субдискретизация насыщенности : 4:2:0
Битовая глубина : 8 бит
Тип развёртки : Прогрессивная
Бит/(Пиксели*Кадры) : 0.018
Размер потока : 14,5 Мбайт (74%)
Заголовок : ISO Media file produced by Google Inc. Created on: 05/20/2018.
Дата кодирования : UTC 2018-05-20 22:46:59
Дата пометки : UTC 2018-05-20 22:46:59
Цветовой диапазон : Limited
Основные цвета : BT.709
Характеристики трансфера : BT.709
Коэффициенты матрицы : BT.709
Codec configuration box : avcC
Аудио
Идентификатор : 2
Формат : AAC LC
Формат/Информация : Advanced Audio Codec Low Complexity
Идентификатор кодека : mp4a-40-2
Продолжительность : 5 м. 25 с.
Вид битрейта : Переменный
Битрейт : 128 Кбит/сек
Каналы : 2 канала
Channel layout : L R
Частота : 44,1 КГц
Частота кадров : 43,066 кадра/сек (1024 SPF)
Метод сжатия : С потерями
Размер потока : 4,97 Мбайт (25%)
Заголовок : ISO Media file produced by Google Inc. Created on: 05/20/2018.
Дата кодирования : UTC 2018-05-20 22:46:59
Дата пометки : UTC 2018-05-20 22:46:59

Программа курса:

ДЕНЬ 1. Зонирование помещений и эргономика
ДЕНЬ 2.Создание планировки от руки. Часть I
ДЕНЬ 3.Создание планировки от руки. Часть II
ДЕНЬ 4. Разбор планировок участников курса
ДЕНЬ 5. Основы проектирования в программе SketchUp
ДЕНЬ 6. Создание обмерного плана в программе SketchUp
ДЕНЬ 7. Создание планировочного решения с мебелью в SketchUp
ДЕНЬ 8. Перепланировка помещения в SketchUp
ДЕНЬ 9. Стили в интерьере и как их отличать
ДЕНЬ 10. Научимся использовать аналоги
ДЕНЬ 11. Основы оформления дизайн-проекта в программе LayOut
ДЕНЬ 12. Создадим коллаж нашего будущего интерьера
ДЕНЬ 13. Оформление дизайн-проекта. Обмерный план
ДЕНЬ 14. Оформление дизайн-проекта в альбом
ДЕНЬ 15. Подведение итогов марафона
Скриншоты:
Скачать .torrent

Чтобы скачать торрент-файл

Олег Троицкий - Создай дизайн-проект квартиры твоей мечты за 15 занятий (2018)

Вам нужно Авторизоваться на сайте под своим логином. Если у Вы ещё не зарегистрированы, тогда Вам нужно пройти Регистрацию


Показать сообщения:    
Ответить на тему

Скачать Олег Троицкий - Создай дизайн-проект квартиры твоей мечты за 15 занятий (2018) торрент бесплатно. Отзывы, слив складчины.

Текущее время: Сегодня 10:10

Часовой пояс: GMT + 4



Вы не можете начинать темы
Вы не можете отвечать на сообщения
Вы не можете редактировать свои сообщения
Вы не можете удалять свои сообщения
Вы не можете голосовать в опросах
Вы не можете прикреплять файлы к сообщениям
Вы не можете скачивать файлы