Новые раздачи

26-Ноя
26-Ноя
26-Ноя
25-Ноя
25-Ноя
25-Ноя
25-Ноя
24-Ноя
24-Ноя
24-Ноя
24-Ноя
24-Ноя
24-Ноя
24-Ноя
24-Ноя

Важное

Школа СкетчАп - Ландшафт в SketchUp (2019) торрент

Ответить на тему
 
Автор Сообщение

Prescious ®

Школа СкетчАп | Ландшафт в SketchUp (2019) - Автор: Школа СкетчАп
Жанр: Графика
Описание:
Ландшафт в SketchUp для ландшафтных дизайнеров и архитекторов
Продолжительность: 12:55:50
Видео: AVC/H.264, 348x640 - 720x1280, 30fps, ~1 116 Кбит/сек
Аудио: AAC, 2 ch, 192 Кбит/сек

MediaInfo:

Общее
Полное имя : D:\Курс\000000000001\[Школа СкетчАп] Ландшафтный дизайн в SketchUp\06\6.1.Патио.mp4
Формат : MPEG-4
Профиль формата : Base Media / Version 2
Идентификатор кодека : mp42 (isom/mp42)
Размер файла : 425 Мбайт
Продолжительность : 45 м. 24 с.
Режим общего битрейта : Переменный
Общий поток : 1 310 Кбит/сек
Дата кодирования : UTC 2018-04-02 11:37:04
Дата пометки : UTC 2018-04-02 11:37:04
gsst : 0
gstd : 2724095
Видео
Идентификатор : 1
Формат : AVC
Формат/Информация : Advanced Video Codec
Профиль формата : High@L3.1
Настройки формата : CABAC / 1 Ref Frames
Параметр CABAC формата : Да
Параметр RefFrames формата : 1 кадр
Параметр GOP формата : M=1, N=60
Идентификатор кодека : avc1
Идентификатор кодека/Информация : Advanced Video Coding
Продолжительность : 45 м. 24 с.
Битрейт : 1 116 Кбит/сек
Максимальный битрейт : 9 232 Кбит/сек
Ширина : 1 280 пикселей
Высота : 696 пикселей
Соотношение сторон : 1,85:1
Режим частоты кадров : Постоянный
Частота кадров : 30,000 кадров/сек
Цветовое пространство : YUV
Субдискретизация насыщенности : 4:2:0
Битовая глубина : 8 бит
Тип развёртки : Прогрессивная
Бит/(Пиксели*Кадры) : 0.042
Размер потока : 362 Мбайт (85%)
Дата пометки : UTC 2018-04-02 11:37:35
Цветовой диапазон : Limited
Основные цвета : BT.709
Характеристики трансфера : BT.709
Коэффициенты матрицы : BT.709
Codec configuration box : avcC
Аудио
Идентификатор : 2
Формат : AAC LC
Формат/Информация : Advanced Audio Codec Low Complexity
Идентификатор кодека : mp4a-40-2
Продолжительность : 45 м. 24 с.
Вид битрейта : Переменный
Битрейт : 192 Кбит/сек
Максимальный битрейт : 201 Кбит/сек
Каналы : 2 канала
Channel layout : L R
Частота : 44,1 КГц
Частота кадров : 43,066 кадра/сек (1024 SPF)
Метод сжатия : С потерями
Размер потока : 62,3 Мбайт (15%)
Заголовок : IsoMedia File Produced by Google, 5-11-2011
Язык : English
Дата кодирования : UTC 2018-04-02 11:37:21
Дата пометки : UTC 2018-04-02 11:37:35
Скриншоты:
Скачать .torrent

Чтобы скачать торрент-файл

Школа СкетчАп - Ландшафт в SketchUp (2019)

Вам нужно Авторизоваться на сайте под своим логином. Если у Вы ещё не зарегистрированы, тогда Вам нужно пройти Регистрацию


Показать сообщения:    
Ответить на тему

Скачать Школа СкетчАп - Ландшафт в SketchUp (2019) торрент бесплатно. Отзывы, слив складчины.

Текущее время: Сегодня 14:15

Часовой пояс: GMT + 4



Вы не можете начинать темы
Вы не можете отвечать на сообщения
Вы не можете редактировать свои сообщения
Вы не можете удалять свои сообщения
Вы не можете голосовать в опросах
Вы не можете прикреплять файлы к сообщениям
Вы не можете скачивать файлы