Школа СкетчАп - Ландшафтный дизайн в AutoCAD (2020) торрент

Ответить на тему
 
Автор Сообщение

Prescious ®

Школа СкетчАп | Ландшафтный дизайн в AutoCAD (2020)- Автор: Школа СкетчАп
Жанр: Графика
Описание:
Ландшафт в AutoCAD для ландшафтных дизайнеров и архитекторов генплана
Продолжительность: 10:14:23
Видео: AVC/H.264, 640x348-1280x720, 30fps, ~1 116 Кбит/сек
Аудио: AAC, 2 ch, 192 Кбит/сек

MediaInfo:

Общее
Полное имя : D:\Курс\000000000001\[Школа СкетчАп] Ландшафтный дизайн в AutoCAD (2020)\Урок 09\AutoCAD 2019 ландшафт 09.03.mp4
Формат : MPEG-4
Профиль формата : Base Media / Version 2
Идентификатор кодека : mp42 (isom/mp42)
Размер файла : 251 Мбайт
Продолжительность : 26 м. 43 с.
Режим общего битрейта : Переменный
Общий поток : 1 314 Кбит/сек
Дата кодирования : UTC 2019-12-17 10:48:15
Дата пометки : UTC 2019-12-17 10:48:15
Программа кодирования : Google
gsst : 0
gstd : 1603779
Видео
Идентификатор : 1
Формат : AVC
Формат/Информация : Advanced Video Codec
Профиль формата : High@L4
Настройки формата : CABAC / 1 Ref Frames
Параметр CABAC формата : Да
Параметр RefFrames формата : 1 кадр
Идентификатор кодека : avc1
Идентификатор кодека/Информация : Advanced Video Coding
Продолжительность : 26 м. 43 с.
Битрейт : 1 184 Кбит/сек
Ширина : 1 920 пикселей
Высота : 1 080 пикселей
Соотношение сторон : 16:9
Режим частоты кадров : Постоянный
Частота кадров : 30,000 кадров/сек
Цветовое пространство : YUV
Субдискретизация насыщенности : 4:2:0
Битовая глубина : 8 бит
Тип развёртки : Прогрессивная
Бит/(Пиксели*Кадры) : 0.019
Размер потока : 226 Мбайт (90%)
Заголовок : ISO Media file produced by Google Inc. Created on: 12/17/2019.
Библиотека кодирования : x264 core 155 r2901 7d0ff22
Дата кодирования : UTC 2019-12-17 10:48:15
Дата пометки : UTC 2019-12-17 10:48:15
Цветовой диапазон : Limited
Основные цвета : BT.709
Характеристики трансфера : BT.709
Коэффициенты матрицы : BT.601
Codec configuration box : avcC
Аудио
Идентификатор : 2
Формат : AAC LC
Формат/Информация : Advanced Audio Codec Low Complexity
Идентификатор кодека : mp4a-40-2
Продолжительность : 26 м. 43 с.
Вид битрейта : Переменный
Битрейт : 128 Кбит/сек
Каналы : 2 канала
Channel layout : L R
Частота : 44,1 КГц
Частота кадров : 43,066 кадра/сек (1024 SPF)
Метод сжатия : С потерями
Размер потока : 24,5 Мбайт (10%)
Заголовок : ISO Media file produced by Google Inc. Created on: 12/17/2019.
Дата кодирования : UTC 2019-12-17 10:48:15
Дата пометки : UTC 2019-12-17 10:48:15
Скриншоты:
Скачать .torrent

Чтобы скачать торрент-файл

Школа СкетчАп - Ландшафтный дизайн в AutoCAD (2020)

Вам нужно Авторизоваться на сайте под своим логином. Если у Вы ещё не зарегистрированы, тогда Вам нужно пройти Регистрацию


Показать сообщения:    
Ответить на тему

Скачать Школа СкетчАп - Ландшафтный дизайн в AutoCAD (2020) торрент бесплатно. Отзывы, слив складчины.

Текущее время: Сегодня 18:36

Часовой пояс: GMT + 4



Вы не можете начинать темы
Вы не можете отвечать на сообщения
Вы не можете редактировать свои сообщения
Вы не можете удалять свои сообщения
Вы не можете голосовать в опросах
Вы не можете прикреплять файлы к сообщениям
Вы не можете скачивать файлы