Иоанн Диков и др. - SketchUp. Связки. Пoдaчa c Illustrаtоr + Photoshop (2020) торрент

Ответить на тему
 
Автор Сообщение

Prescious ®

Иоанн Диков и др. | SketchUp. Связки. Пoдaчa c Illustrаtоr + Photoshop (2020) PCRec - Автор: Иоанн Диков и др.
Производство: Софт Культура
Жанр: Графика
Описание:
SketchUp умеет многое, но не всё. Этот онлайн-курс — о связке трёх программ: SketchUp, Photoshop и Illustrator, и о том, как сделать подачу эффектной, а рабочий процесс — максимально бесшовным.
Продолжительность: 06:21:18
Видео: AVC/H.264,1280x720-1920x1080, 30fps, ~1 184 Кбит/сек
Аудио: AAC, 2 ch, 128 Кбит/сек

MediaInfo:

Общее
Полное имя : D:\Курс\000000000001\[Софт Культура] SketchUp. Связки. Пoдaчa c Illustrаtоr + Photoshop (2020)\6. Sketchup + Photoshop + Illustrator. Возможности работы в связке\1. Сочетание векторной и растровой графики.mp4
Формат : MPEG-4
Профиль формата : Base Media
Идентификатор кодека : isom (isom/iso2/avc1/mp41)
Размер файла : 17,3 Мбайт
Продолжительность : 3 м. 22 с.
Общий поток : 718 Кбит/сек
Программа кодирования : Lavf58.20.100
Видео
Идентификатор : 1
Формат : AVC
Формат/Информация : Advanced Video Codec
Профиль формата : High@L4
Настройки формата : CABAC / 4 Ref Frames
Параметр CABAC формата : Да
Параметр RefFrames формата : 4 кадра
Идентификатор кодека : avc1
Идентификатор кодека/Информация : Advanced Video Coding
Продолжительность : 3 м. 22 с.
Битрейт : 520 Кбит/сек
Ширина : 1 920 пикселей
Высота : 1 080 пикселей
Соотношение сторон : 16:9
Режим частоты кадров : Постоянный
Частота кадров : 30,000 кадров/сек
Цветовое пространство : YUV
Субдискретизация насыщенности : 4:2:0
Битовая глубина : 8 бит
Тип развёртки : Прогрессивная
Бит/(Пиксели*Кадры) : 0.008
Размер потока : 12,6 Мбайт (72%)
Библиотека кодирования : x264 core 155 r2917 0a84d98
Настройки программы : cabac=1 / ref=4 / deblock=1:0:0 / analyse=0x3:0x113 / me=hex / subme=8 / psy=1 / psy_rd=1.00:0.00 / mixed_ref=1 / me_range=16 / chroma_me=1 / trellis=2 / 8x8dct=1 / cqm=0 / deadzone=21,11 / fast_pskip=1 / chroma_qp_offset=-2 / threads=6 / lookahead_threads=1 / sliced_threads=0 / nr=0 / decimate=1 / interlaced=0 / bluray_compat=0 / constrained_intra=0 / bframes=3 / b_pyramid=2 / b_adapt=1 / b_bias=0 / direct=3 / weightb=1 / open_gop=0 / weightp=2 / keyint=250 / keyint_min=25 / scenecut=40 / intra_refresh=0 / rc_lookahead=50 / rc=crf / mbtree=1 / crf=22.0 / qcomp=0.60 / qpmin=0 / qpmax=69 / qpstep=4 / ip_ratio=1.40 / aq=1:1.00
Язык : English
Codec configuration box : avcC
Аудио
Идентификатор : 2
Формат : AAC LC
Формат/Информация : Advanced Audio Codec Low Complexity
Идентификатор кодека : mp4a-40-2
Продолжительность : 3 м. 22 с.
Duration_LastFrame : -9 мс.
Вид битрейта : Постоянный
Битрейт : 192 Кбит/сек
Каналы : 2 канала
Channel layout : L R
Частота : 48,0 КГц
Частота кадров : 46,875 кадров/сек (1024 SPF)
Метод сжатия : С потерями
Размер потока : 4,58 Мбайт (26%)
Язык : English
Default : Да
Alternate group : 1

Для кого этот курс:

Курс рассчитан на архитекторов и дизайнеров интерьера, которые уже работают в SketchUp, Photoshop и Illustrator на базовом уровне, но хотят большего: научиться использовать графику для коммуникации идей и освоить приёмы тех, кто постоянно применяет связку в подаче проектов.
Новичкам советуем подготовиться заранее и подтянуть базовые навыки на курсе «SketchUp. Быстрое моделирование».
Покажем основные принципы эффективной работы в SketchUp и расскажем о правилах безопасности при подготовке экспортов с 3D-модели для её последующей постобработки, научим грамотно обращаться с графикой проекта и сравним возможности подачи в SketchUp LayOut и Adobe Illustrator, покажем, как превратить экспорты с модели в концептуальный коллаж в Photoshop.
Мы расскажем о всех возможных комбинациях программ и способах их взаимной замены, а вы научитесь сочетать растровую и векторную графику, быстро и гладко переходить от одной программы к другой и изобретать собственные приёмы подачи.

План занятий:

1
Возможности работы в связках
Подача проекта в связке SketchUp с Photoshop и Illustrator: преимущества, особенности и альтернативы
2
SketchUр. Быстрое моделирование
Переход от чертежа к модели. Взаимодействие SketchUp с dwg
Организация модели. Блоки и компоненты, группы и слои
Плагины и приёмы для ускорения моделирования
3
SketchUp + Photoshop. Создание коллажа
Выбор формата для экспорта модели
Настройка сцены, камеры и кадра
Разбор примеров коллажей и принципов «хорошей картинки»
Мастер-класс по созданию коллажа в Photoshop
Ревью рабочих файлов преподавателя, созданных для других ракурсов модели
4
SketchUp + Illustrator. Инфографика проекта
Особенности работы с векторной графикой
Создание взрыв-схемы в SketchUp
Подача взрыв-схемы в Illustrator
Взаимозаменяемость LayOut и lllustrator
5
SketchUp + Photoshop + Illustrator
Связка трёх программ: бесшовные переходы
Сочетание растровой и векторной графики: варианты, приёмы и алгоритмы работы
Скриншоты:
Скачать .torrent

Чтобы скачать торрент-файл

Иоанн Диков и др. - SketchUp. Связки. Пoдaчa c Illustrаtоr + Photoshop (2020)

Вам нужно Авторизоваться на сайте под своим логином. Если у Вы ещё не зарегистрированы, тогда Вам нужно пройти Регистрацию


Показать сообщения:    
Ответить на тему

Скачать Иоанн Диков и др. - SketchUp. Связки. Пoдaчa c Illustrаtоr + Photoshop (2020) торрент бесплатно. Отзывы, слив складчины.

Текущее время: Сегодня 01:15

Часовой пояс: GMT + 4



Вы не можете начинать темы
Вы не можете отвечать на сообщения
Вы не можете редактировать свои сообщения
Вы не можете удалять свои сообщения
Вы не можете голосовать в опросах
Вы не можете прикреплять файлы к сообщениям
Вы не можете скачивать файлы