Илья Беляков - Онлайн-марафон «SketchUp для дизайнеров и архитекторов от А до Я (2019) торрент

Ответить на тему
 
Автор Сообщение

Prescious ®

Илья Беляков | Онлайн-марафон «SketchUp для дизайнеров и архитекторов от А до Я (2019)- Автор: Илья Беляков
Производство: Art Gluck
Жанр: Графика
Описание:
Узнаете, как с помощью SketchUp можно создавать проекты, делать эффектную подачу и качественные визуализации.
Получите много практики, которая ускорит работу, улучшит результаты и качество проектов. Так же, мы поделимся своим видением и профессиональным опытом.
Познакомитесь с современными программами дизайнеров и архитекторов. Узнаете, какие подходы к созданию проектов используют в мировой практике.
10 часов практики, проект в портфолио и пул знаний для дальнейшего развития.
Продолжительность: 09:11:22
Качество видео: PCRec
Видео: AVC/H.264, 1280x720-1920x1046, 30fps, ~949 Кбит/сек
Аудио: AAC, 2 ch, 183 Кбит/сек

MediaInfo:

Общее
Полное имя : D:\Курс\000000000001\[Art Gluck] SketchUp для дизайнеров и архитекторов от А до Я (2019)\ День 1\ День 1 — SketchUp от А до Я 1.0.mp4
Формат : MPEG-4
Профиль формата : Base Media
Идентификатор кодека : isom (isom/iso2/avc1/mp41)
Размер файла : 1,49 Гбайт
Продолжительность : 3 ч. 7 м.
Режим общего битрейта : Переменный
Общий поток : 1 141 Кбит/сек
Программа кодирования : Lavf57.71.100
Видео
Идентификатор : 1
Формат : AVC
Формат/Информация : Advanced Video Codec
Профиль формата : Main@L3.1
Настройки формата : CABAC / 1 Ref Frames
Параметр CABAC формата : Да
Параметр RefFrames формата : 1 кадр
Параметр GOP формата : M=1, N=25
Идентификатор кодека : avc1
Идентификатор кодека/Информация : Advanced Video Coding
Продолжительность : 3 ч. 7 м.
Вид битрейта : Постоянный
Битрейт : 949 Кбит/сек
Номинальный битрейт : 1 060 Кбит/сек
Ширина : 1 280 пикселей
Высота : 720 пикселей
Соотношение сторон : 16:9
Частота кадров : 29,970 (30000/1001) кадров/сек
Цветовое пространство : YUV
Субдискретизация насыщенности : 4:2:0
Битовая глубина : 8 бит
Тип развёртки : Прогрессивная
Бит/(Пиксели*Кадры) : 0.034
Размер потока : 1,24 Гбайт (83%)
Codec configuration box : avcC
Аудио
Идентификатор : 2
Формат : AAC LC
Формат/Информация : Advanced Audio Codec Low Complexity
Идентификатор кодека : mp4a-40-2
Продолжительность : 3 ч. 7 м.
Вид битрейта : Переменный
Битрейт : 183 Кбит/сек
Максимальный битрейт : 192 Кбит/сек
Каналы : 2 канала
Channel layout : L R
Частота : 44,1 КГц
Частота кадров : 43,066 кадра/сек (1024 SPF)
Метод сжатия : С потерями
Размер потока : 246 Мбайт (16%)
Default : Да
Alternate group : 1

Программа:

День 1. НАЧАЛО ПРОЕКТА – ДЕЛАЕМ ОБЪЁМ ИЗ ПЛАНА:
Подготовка рабочего файла, основные настройки.
Создание объема из плана.
Группы и компоненты.
Камера и сцены.
День 2. РАБОТА С МОДЕЛЬЮ:
Обзор самых нужных плагинов для моделирования и работы.
Советы по работе с библиотекой Warehouse.
Анимация, стили, сцены, экспорт.
День 3. ПОДГОТОВКА К ЭКСПОРТУ:
Инструменты измерения Сечения.
Экспорт модели в 2D для работы в Illustrator и Photoshop.
Скриншоты:
Скачать .torrent

Чтобы скачать торрент-файл

Илья Беляков - Онлайн-марафон «SketchUp для дизайнеров и архитекторов от А до Я (2019)

Вам нужно Авторизоваться на сайте под своим логином. Если у Вы ещё не зарегистрированы, тогда Вам нужно пройти Регистрацию


Показать сообщения:    
Ответить на тему

Скачать Илья Беляков - Онлайн-марафон «SketchUp для дизайнеров и архитекторов от А до Я (2019) торрент бесплатно. Отзывы, слив складчины.

Текущее время: Сегодня 07:41

Часовой пояс: GMT + 4



Вы не можете начинать темы
Вы не можете отвечать на сообщения
Вы не можете редактировать свои сообщения
Вы не можете удалять свои сообщения
Вы не можете голосовать в опросах
Вы не можете прикреплять файлы к сообщениям
Вы не можете скачивать файлы