Marco Bucci - The Art Of Color And Light with (2015) торрент

Ответить на тему
 
Автор Сообщение

Prescious ®

Marco Bucci | The Art Of Color And Light with (2015) PCRec [En, Ru] - Автор: Marco Bucci
Производство: CGMA
Жанр: Создание видео
Описание:
Искусство цвета и света - это исследование свойств цвета и света в различных условиях. Это важный этап в концепт-арте, который передает настроение и повествование истории посредством визуальных подсказок.
Продолжительность: 12:43:24
Качество видео: PCRec
Язык озвучки: Английский, Русский
Видео: AVC/H.264, 1920x1080, ~288kbps
Аудио: AAC, 2 ch, 253kbps
Аудио 2: MP3, 2 ch, 192kbps (отдельным файлом)

MediaInfo:

General
Complete name : K:\[CGMA] The Art Of Color And Light with Marco Bucci [ENG-RUS]\Week 1\The Art of Color and Light A week 1 - Classroom - CG Master Academy.mp4
Format : MPEG-4
Format profile : Base Media / Version 2
Codec ID : mp42 (isom/mp42)
File size : 11.3 MiB
Duration : 2 min 54 s
Overall bit rate mode : Variable
Overall bit rate : 545 kb/s
Encoded date : UTC 2017-01-16 14:51:01
Tagged date : UTC 2017-01-16 14:51:01
Video
ID : 1
Format : AVC
Format/Info : Advanced Video Codec
Format profile : Main@L4
Format settings : CABAC / 3 Ref Frames
Format settings, CABAC : Yes
Format settings, Reference fra : 3 frames
Codec ID : avc1
Codec ID/Info : Advanced Video Coding
Duration : 2 min 53 s
Bit rate : 289 kb/s
Width : 1 920 pixels
Height : 1 080 pixels
Display aspect ratio : 16:9
Frame rate mode : Constant
Frame rate : 30.000 FPS
Standard : NTSC
Color space : YUV
Chroma subsampling : 4:2:0
Bit depth : 8 bits
Scan type : Progressive
Bits/(Pixel*Frame) : 0.005
Stream size : 5.99 MiB (53%)
Language : English
Encoded date : UTC 2017-01-16 14:51:01
Tagged date : UTC 2017-01-16 14:51:01
Color range : Limited
Codec configuration box : avcC
Audio
ID : 2
Format : AAC LC
Format/Info : Advanced Audio Codec Low Complexity
Codec ID : mp4a-40-2
Duration : 2 min 54 s
Bit rate mode : Variable
Bit rate : 254 kb/s
Maximum bit rate : 320 kb/s
Channel(s) : 2 channels
Channel layout : L R
Sampling rate : 44.1 kHz
Frame rate : 43.066 FPS (1024 SPF)
Compression mode : Lossy
Stream size : 5.26 MiB (47%)
Language : English
Encoded date : UTC 2017-01-16 14:51:01
Tagged date : UTC 2017-01-16 14:51:01

Дополнительная информация:

Программное обеспечение: Photoshop
Файлы примеров: Нет

Содержание:

Неделя 1 - Важность тонов, часть 1 - Дизайн изображения
Неделя 2 - Важность тонов, часть 2 - Рисование формы
Неделя 3 - Цветовая температура
Неделя 4 - Цветовые ключи
Неделя 5 - Концепт-арт, часть 1 - Планирование
Неделя 6 - Концепт-арт, часть 2 - Рисование финальной работы
Неделя 7 - Материалы и штрихи
Неделя 8 - Этюд по картине
Скриншоты:
Скачать .torrent

Чтобы скачать торрент-файл

Marco Bucci - The Art Of Color And Light with (2015)

Вам нужно Авторизоваться на сайте под своим логином. Если у Вы ещё не зарегистрированы, тогда Вам нужно пройти Регистрацию


Показать сообщения:    
Ответить на тему

Скачать Marco Bucci - The Art Of Color And Light with (2015) торрент бесплатно. Отзывы, слив складчины.

Текущее время: Сегодня 11:37

Часовой пояс: GMT + 4



Вы не можете начинать темы
Вы не можете отвечать на сообщения
Вы не можете редактировать свои сообщения
Вы не можете удалять свои сообщения
Вы не можете голосовать в опросах
Вы не можете прикреплять файлы к сообщениям
Вы не можете скачивать файлы