Новые раздачи

26-Ноя
26-Ноя
26-Ноя
25-Ноя
25-Ноя
25-Ноя
25-Ноя
24-Ноя
24-Ноя
24-Ноя
24-Ноя
24-Ноя
24-Ноя
24-Ноя
24-Ноя

Важное

Школа Кайно, Павел Голубев - Мастер-класс «Кайнофон» / KainoPhone (Blender 2.81) (2020) торрент

Ответить на тему
 
Автор Сообщение

Prescious ®

Школа Кайно, Павел Голубев | Мастер-класс «Кайнофон» / KainoPhone (Blender 2.81) (2020) PCRec - Автор: Павел Голубев
Производство: Школа Кайно
Жанр: 3D моделирование
Описание:
Мастер-класс «Кайнофон» посвящён созданию модели смартфона и его последующей анимации в программе Blender 2.81.
Продолжительность: 04:13:13
Качество видео: PCRec
Видео: AVC/H.264, 1920х1080, ~1288 Kbps
Аудио: AAC, 2 ch, 253 Kbps, VBR

Mediainfo:

General
Complete name : C:\Torrents\KainoPhone\Урок 6.1. Моделирование.mp4
Format : MPEG-4
Format profile : Base Media / Version 2
Codec ID : mp42 (mp42/mp41/isom/avc1)
File size : 374 MiB
Duration : 33 min 50 s
Overall bit rate mode : Variable
Overall bit rate : 1 545 kb/s
Encoded date : UTC 2020-03-08 13:59:29
Tagged date : UTC 2020-03-08 13:59:29
Video
ID : 1
Format : AVC
Format/Info : Advanced Video Codec
Format profile : High@L4
Format settings : CABAC / 5 Ref Frames
Format settings, CABAC : Yes
Format settings, Reference : 5 frames
Codec ID : avc1
Codec ID/Info : Advanced Video Coding
Duration : 33 min 50 s
Bit rate : 1 288 kb/s
Width : 1 920 pixels
Height : 1 080 pixels
Display aspect ratio : 16:9
Frame rate mode : Constant
Frame rate : 24.000 FPS
Color space : YUV
Chroma subsampling : 4:2:0
Bit depth : 8 bits
Scan type : Progressive
Bits/(Pixel*Frame) : 0.026
Stream size : 312 MiB (83%)
Writing library : x264 core 159 r10 1771b55
Encoding settings : cabac=1 / ref=5 / deblock=1:0:0 / analyse=0x3:0x113 / me=hex / subme=8 / psy=1 / psy_rd=1.00:0.00 / mixed_ref=1 / me_range=16 / chroma_me=1 / trellis=2 / 8x8dct=1 / cqm=0 / deadzone=21,11 / fast_pskip=1 / chroma_qp_offset=-2 / threads=34 / lookahead_threads=5 / sliced_threads=0 / nr=0 / decimate=1 / interlaced=0 / bluray_compat=0 / stitchable=1 / constrained_intra=0 / bframes=3 / b_pyramid=2 / b_adapt=2 / b_bias=0 / direct=3 / weightb=1 / open_gop=0 / weightp=2 / keyint=infinite / keyint_min=24 / scenecut=40 / intra_refresh=0 / rc_lookahead=50 / rc=crf / mbtree=1 / crf=20.0 / qcomp=0.60 / qpmin=5 / qpmax=69 / qpstep=4 / vbv_maxrate=5500 / vbv_bufsize=15000 / crf_max=0.0 / nal_hrd=none / filler=0 / ip_ratio=1.40 / aq=1:1.00
Encoded date : UTC 2020-03-08 13:59:29
Tagged date : UTC 2020-03-08 13:59:29
Color range : Limited
Color primaries : BT.709
Transfer characteristics : BT.709
Matrix coefficients : BT.709
Codec configuration box : avcC
Audio
ID : 2
Format : AAC LC
Format/Info : Advanced Audio Codec Low Complexity
Codec ID : mp4a-40-2
Duration : 33 min 50 s
Bit rate mode : Variable
Bit rate : 253 kb/s
Channel(s) : 2 channels
Channel layout : L R
Sampling rate : 48.0 kHz
Frame rate : 46.875 FPS (1024 SPF)
Compression mode : Lossy
Stream size : 61.3 MiB (16%)
Encoded date : UTC 2020-03-08 13:59:29
Tagged date : UTC 2020-03-08 13:59:29
Скриншоты:
Скачать .torrent

Чтобы скачать торрент-файл

Школа Кайно, Павел Голубев - Мастер-класс «Кайнофон» / KainoPhone (Blender 2.81) (2020)

Вам нужно Авторизоваться на сайте под своим логином. Если у Вы ещё не зарегистрированы, тогда Вам нужно пройти Регистрацию


Показать сообщения:    
Ответить на тему

Скачать Школа Кайно, Павел Голубев - Мастер-класс «Кайнофон» / KainoPhone (Blender 2.81) (2020) торрент бесплатно. Отзывы, слив складчины.

Текущее время: Сегодня 13:22

Часовой пояс: GMT + 4



Вы не можете начинать темы
Вы не можете отвечать на сообщения
Вы не можете редактировать свои сообщения
Вы не можете удалять свои сообщения
Вы не можете голосовать в опросах
Вы не можете прикреплять файлы к сообщениям
Вы не можете скачивать файлы