Новые раздачи

03-Окт
03-Окт
03-Окт
03-Окт
03-Окт
03-Окт
03-Окт
03-Окт
03-Окт
03-Окт
03-Окт
03-Окт
03-Окт
03-Окт
03-Окт

Важное

Пакин Липтават - Intro to Background Design and Perspective (2011) торрент

Ответить на тему
 
Автор Сообщение

Prescious ®

Пакин Липтават | Intro to Background Design and Perspective (2011) PCRec [En, Ru]- Автор: Пакин Липтават
Производство: CGMA
Жанр: Создание видео
Описание:
Представьте себе красивый замок с огромными шпилями, подземное логово супер-злодея, или темный и грязный завод, наполненный нелепыми машинами. Как вы берёте идею для окружающей среды и превращаете её в рисунок? Этот урок даст начинающим дизайнерам основу, необходимую для проектирования сред и фона. Кроме того, этот урок будет введением в техники дизайна фона, которые проведут вас от основ перспективы, создания эскизов, композиции к более передовым техникам, используя программное обеспечение, такое как Google Sketchup и Photoshop.
Продолжительность: 02:24:00
Качество видео: PCRec
Язык озвучки: Английский, Русский
Видео: AVC/H.264, 1920x1080, ~2519kbps
Аудио: AAC, 2 ch, 108kbps
Аудио 2: MP3, 1 ch, 320kbps (отдельным файлом)

MediaInfo:

General
Complete name : K:\[CGMW] Intro to Background Design and Perspective [ENG-RUS]\CGMW - Intro to Background Design and Perspective.mp4
Format : MPEG-4
Format profile : Base Media
Codec ID : isom (isom/iso2/avc1/mp41)
File size : 2.65 GiB
Duration : 2 h 24 min
Overall bit rate mode : Variable
Overall bit rate : 2 632 kb/s
Writing application : Lavf56.25.101
Video
ID : 1
Format : AVC
Format/Info : Advanced Video Codec
Format profile : High@L4
Format settings : CABAC / 4 Ref Frames
Format settings, CABAC : Yes
Format settings, Reference fra : 4 frames
Codec ID : avc1
Codec ID/Info : Advanced Video Coding
Duration : 2 h 24 min
Bit rate : 2 519 kb/s
Nominal bit rate : 4 950 kb/s
Width : 1 920 pixels
Height : 1 080 pixels
Display aspect ratio : 16:9
Frame rate mode : Constant
Frame rate : 15.000 FPS
Color space : YUV
Chroma subsampling : 4:2:0
Bit depth : 8 bits
Scan type : Progressive
Bits/(Pixel*Frame) : 0.081
Stream size : 2.54 GiB (96%)
Writing library : x264 core 142
Encoding settings : cabac=1 / ref=3 / deblock=1:0:0 / analyse=0x3:0x113 / me=hex / subme=7 / psy=1 / psy_rd=1.00:0.00 / mixed_ref=1 / me_range=16 / chroma_me=1 / trellis=1 / 8x8dct=1 / cqm=0 / deadzone=21,11 / fast_pskip=1 / chroma_qp_offset=-2 / threads=6 / lookahead_threads=1 / sliced_threads=0 / nr=0 / decimate=1 / interlaced=0 / bluray_compat=0 / constrained_intra=0 / bframes=3 / b_pyramid=2 / b_adapt=1 / b_bias=0 / direct=1 / weightb=1 / open_gop=0 / weightp=2 / keyint=20 / keyint_min=2 / scenecut=40 / intra_refresh=0 / rc_lookahead=20 / rc=2pass / mbtree=1 / bitrate=4950 / ratetol=1.0 / qcomp=0.60 / qpmin=0 / qpmax=69 / qpstep=4 / cplxblur=20.0 / qblur=0.5 / ip_ratio=1.40 / aq=1:1.00
Codec configuration box : avcC
Audio
ID : 2
Format : AAC LC
Format/Info : Advanced Audio Codec Low Complexity
Codec ID : mp4a-40-2
Duration : 2 h 24 min
Bit rate mode : Variable
Bit rate : 108 kb/s
Maximum bit rate : 192 kb/s
Channel(s) : 2 channels
Channel layout : L R
Sampling rate : 44.1 kHz
Frame rate : 43.066 FPS (1024 SPF)
Compression mode : Lossy
Stream size : 112 MiB (4%)
Default : Yes
Alternate group : 1

Дополнительная информация:

Программное обеспечение: Photoshop
Файлы примеров: Нет
Скриншоты:
Скачать .torrent

Чтобы скачать торрент-файл

Пакин Липтават - Intro to Background Design and Perspective (2011)

Вам нужно Авторизоваться на сайте под своим логином. Если у Вы ещё не зарегистрированы, тогда Вам нужно пройти Регистрацию


Показать сообщения:    
Ответить на тему

Скачать Пакин Липтават - Intro to Background Design and Perspective (2011) торрент бесплатно. Отзывы, слив складчины.

Текущее время: Сегодня 02:39

Часовой пояс: GMT + 4



Вы не можете начинать темы
Вы не можете отвечать на сообщения
Вы не можете редактировать свои сообщения
Вы не можете удалять свои сообщения
Вы не можете голосовать в опросах
Вы не можете прикреплять файлы к сообщениям
Вы не можете скачивать файлы