Наталья Будникова - Стань художником своей жизни! (2020) торрент

Ответить на тему
 
Автор Сообщение

Prescious ®

Наталья Будникова | Стань художником своей жизни! (2020)- Автор: Наталья Будникова
Жанр: Рисование
Описание:
Правополушарные Рисовашки: 17 шедевров за один день!
Видео-курс «Правополушарные Рисовашки: 17 шедевров за один день!» я создала специально для тебя, чтобы помочь тебе стать художником — не только на бумаге, но и в жизни! Рисовашки помогут тебе активировать правое полушарие, чтобы «переключить» свой мозг в творческий режим. Ты получишь простые ключи творческой активации, которые ты сможешь самостоятельно использовать как дома, так и на работе.
А те художественные шедевры, которые мы вместе с тобой нарисуем, будут подтверждением того, что ты талантлив и тебе всё по плечу!
Продолжительность: 05:25:26
Качество видео: PCRec
Видео: AVC/H.264, 720x1280 25fps, ~1 436 Кбит/сек
Аудио: AAC, 2 ch, 192 Кбит/сек

MediaInfo:

Общее
Полное имя : D:\Курс\Правополушарное рисование\Правополушарное рисование\№4 Пальмы На Закате\Пальмы На Закате.mp4
Формат : MPEG-4
Профиль формата : Base Media / Version 2
Идентификатор кодека : mp42 (isom/mp42)
Размер файла : 85,3 Мбайт
Продолжительность : 7 м. 19 с.
Режим общего битрейта : Переменный
Общий поток : 1 630 Кбит/сек
Дата кодирования : UTC 2015-11-04 11:33:59
Дата пометки : UTC 2015-11-04 11:33:59
gsst : 0
gstd : 439135
Видео
Идентификатор : 1
Формат : AVC
Формат/Информация : Advanced Video Codec
Профиль формата : High@L3.1
Настройки формата : CABAC / 1 Ref Frames
Параметр CABAC формата : Да
Параметр RefFrames формата : 1 кадр
Параметр GOP формата : M=1, N=60
Идентификатор кодека : avc1
Идентификатор кодека/Информация : Advanced Video Coding
Продолжительность : 7 м. 19 с.
Битрейт : 1 436 Кбит/сек
Максимальный битрейт : 5 142 Кбит/сек
Ширина : 1 280 пикселей
Высота : 720 пикселей
Соотношение сторон : 16:9
Режим частоты кадров : Постоянный
Частота кадров : 25,000 кадров/сек
Цветовое пространство : YUV
Субдискретизация насыщенности : 4:2:0
Битовая глубина : 8 бит
Тип развёртки : Прогрессивная
Бит/(Пиксели*Кадры) : 0.062
Размер потока : 75,2 Мбайт (88%)
Дата пометки : UTC 2015-11-04 11:34:04
Codec configuration box : avcC
Аудио
Идентификатор : 2
Формат : AAC LC
Формат/Информация : Advanced Audio Codec Low Complexity
Идентификатор кодека : mp4a-40-2
Продолжительность : 7 м. 19 с.
Вид битрейта : Переменный
Битрейт : 192 Кбит/сек
Максимальный битрейт : 202 Кбит/сек
Каналы : 2 канала
Channel layout : L R
Частота : 44,1 КГц
Частота кадров : 43,066 кадра/сек (1024 SPF)
Метод сжатия : С потерями
Размер потока : 10,0 Мбайт (12%)
Заголовок : IsoMedia File Produced by Google, 5-11-2011
Язык : English
Дата кодирования : UTC 2015-11-04 11:34:03
Дата пометки : UTC 2015-11-04 11:34:04
Скриншоты:
Скачать .torrent

Чтобы скачать торрент-файл

Наталья Будникова - Стань художником своей жизни! (2020)

Вам нужно Авторизоваться на сайте под своим логином. Если у Вы ещё не зарегистрированы, тогда Вам нужно пройти Регистрацию


Показать сообщения:    
Ответить на тему

Скачать Наталья Будникова - Стань художником своей жизни! (2020) торрент бесплатно. Отзывы, слив складчины.

Текущее время: Сегодня 09:47

Часовой пояс: GMT + 4



Вы не можете начинать темы
Вы не можете отвечать на сообщения
Вы не можете редактировать свои сообщения
Вы не можете удалять свои сообщения
Вы не можете голосовать в опросах
Вы не можете прикреплять файлы к сообщениям
Вы не можете скачивать файлы