Евгений Карпов - Интерьер в SketchUp (2019) торрент

Ответить на тему
 
Автор Сообщение

Prescious ®

Евгений Карпов | Интерьер в SketchUp (2019) - Автор: Евгений Карпов
Производство: Udemy
Жанр: Графика
Описание:
О курсе
Похож на виртуальную стройку: начинаем со существующих стен, затем возводим перегородки, наносим штукатурку, рассчитываем площади и объемы чернового и чистового пола, вставляем окна и двери, текстурируем, собственноручно моделируем мебель и расставляем готовую. В конце курса получается виртуальная модель дома, которая выводится на страницы в виде картинок, видео и чертежей: планов, сечений, разрезов и разверток.

Продолжение описания:

Базовые инструменты SketchUp изучаем на построениях одномаршевой, двухмаршевой, комбинированной и винтовой лестницах. Стены дома содержат круглый и многоугольный эркер и разделены на слои — штукатурка, кирпич, утеплитель, облицовочный кирпич.
Расчет объемов оттачиваем на построении цоколя, стен, чернового и чистового пола, оконных перемычек, межэтажного перекрытия и армопояса. Площади покрытий считаем нанесенными текстурами. Спецификация по элементам создаем на примере гипсокартонных листов и плитки. Размеры показываем в SketchUp и чертежах LayOut.
Создание сложной геометрии показано на примере ванны, раковины и унитаза. Моделируем декоративные элементы: колонны гладкие и с каннелюрами, плинтуса, потолочные карнизы, наличники и филенки.
Мебель строим в простых объемах, по фотографии и расставляем готовую с сайта 3D Warehouse. Мебельные и декоративные элементы в виде компонентов сохраняем в локальную коллекцию для повторного использования.
Материалы создаем из изображений, найденных в интернете и подгружаем с сайта Школы и 3D Warehouse.
Отдельное внимание отводим созданию анимационного ролика — видеопрогулка по проекту, а так же задаем динамические свойства открывания и закрывания дверей по щелчку мыши.
Чертежи оформляем на А3 с основной надписью с необходимыми данными для реализации. Создаем условные обозначения и используем готовые. Альбом включает страницы: титульный лист, состав проекта, развертка стен; и планы: обмерного, возводимых стен, чистовой отделки, пола, мебели, потолка, электрики.
Продолжительность: 15:01:01
Качество видео: PCRec
Видео: AVC/H.264, 720x1280 30fps, ~807 Кбит/сек
Аудио: AAC, 2 ch, 128 Кбит/сек

MediaInfo:

Общее
Полное имя : D:\Курс\[Udemy] Интерьер в SketchUp (2020)\5. моделируем сферу, окна и двери по профилям и путям командой follow me\1. Строим Сферу И Колонну Командой Follow Me.mp4
Формат : MPEG-4
Профиль формата : Base Media
Идентификатор кодека : isom (isom/iso2/avc1/mp41)
Размер файла : 70,4 Мбайт
Продолжительность : 10 м. 26 с.
Общий поток : 943 Кбит/сек
Программа кодирования : Lavf58.12.100
Видео
Идентификатор : 1
Формат : AVC
Формат/Информация : Advanced Video Codec
Профиль формата : Main@L3.1
Настройки формата : CABAC / 4 Ref Frames
Параметр CABAC формата : Да
Параметр RefFrames формата : 4 кадра
Идентификатор кодека : avc1
Идентификатор кодека/Информация : Advanced Video Coding
Продолжительность : 10 м. 26 с.
Битрейт : 807 Кбит/сек
Номинальный битрейт : 3 000 Кбит/сек
Ширина : 1 280 пикселей
Высота : 720 пикселей
Соотношение сторон : 16:9
Режим частоты кадров : Постоянный
Частота кадров : 30,000 кадров/сек
Цветовое пространство : YUV
Субдискретизация насыщенности : 4:2:0
Битовая глубина : 8 бит
Тип развёртки : Прогрессивная
Бит/(Пиксели*Кадры) : 0.029
Размер потока : 60,2 Мбайт (86%)
Библиотека кодирования : x264 core 148
Настройки программы : cabac=1 / ref=3 / deblock=1:0:0 / analyse=0x1:0x111 / me=umh / subme=6 / psy=1 / psy_rd=1.00:0.00 / mixed_ref=1 / me_range=16 / chroma_me=1 / trellis=1 / 8x8dct=0 / cqm=0 / deadzone=21,11 / fast_pskip=1 / chroma_qp_offset=-2 / threads=22 / lookahead_threads=3 / sliced_threads=0 / nr=0 / decimate=1 / interlaced=0 / bluray_compat=0 / constrained_intra=0 / bframes=3 / b_pyramid=2 / b_adapt=1 / b_bias=0 / direct=1 / weightb=1 / open_gop=0 / weightp=2 / keyint=60 / keyint_min=6 / scenecut=0 / intra_refresh=0 / rc_lookahead=60 / rc=cbr / mbtree=1 / bitrate=3000 / ratetol=1.0 / qcomp=0.60 / qpmin=0 / qpmax=69 / qpstep=4 / vbv_maxrate=3000 / vbv_bufsize=6000 / nal_hrd=none / filler=0 / ip_ratio=1.40 / aq=1:1.00
Codec configuration box : avcC
Аудио
Идентификатор : 2
Формат : AAC LC
Формат/Информация : Advanced Audio Codec Low Complexity
Идентификатор кодека : mp4a-40-2
Продолжительность : 10 м. 26 с.
Вид битрейта : Постоянный
Битрейт : 128 Кбит/сек
Каналы : 2 канала
Channel layout : L R
Частота : 44,1 КГц
Частота кадров : 43,066 кадра/сек (1024 SPF)
Метод сжатия : С потерями
Размер потока : 9,56 Мбайт (14%)
Default : Да
Alternate group : 1

Для кого этот курс:

Для кого этот курс:
Дизайнеры интерьера, архитекторы, инженеры, декораторы
Занимающиеся ремонтом и строительством зданий и сооружений
Желающих обставить свою квартиру своими руками
Желающих создавать проекты в 3D без посторонней помощи
Не умеющих рисовать вручную
Скриншоты:
Скачать .torrent

Чтобы скачать торрент-файл

Евгений Карпов - Интерьер в SketchUp (2019)

Вам нужно Авторизоваться на сайте под своим логином. Если у Вы ещё не зарегистрированы, тогда Вам нужно пройти Регистрацию


Показать сообщения:    
Ответить на тему

Скачать Евгений Карпов - Интерьер в SketchUp (2019) торрент бесплатно. Отзывы, слив складчины.

Текущее время: Сегодня 09:06

Часовой пояс: GMT + 4



Вы не можете начинать темы
Вы не можете отвечать на сообщения
Вы не можете редактировать свои сообщения
Вы не можете удалять свои сообщения
Вы не можете голосовать в опросах
Вы не можете прикреплять файлы к сообщениям
Вы не можете скачивать файлы