Jama Jurabaev - Narrative Concept Art Part 1,2 (2017) торрент

Ответить на тему
 
Автор Сообщение

Prescious ®

Jama Jurabaev | Narrative Concept Art Part 1,2 (2017) PCRec - Автор: Jama Jurabaev
Производство: Learn Squared
Жанр: Дизайн
Описание:
Научитесь передавать идею сюжета, используя простые, но тем не менее эффективные техники окрашивания и Фотошоп. Ветеран в этой области Джама Джурабаев покажет ученикам кратчайшие пути, как акцентироваться на творческом аспекте работы, а не на технической стороне.
• Принципы дизайна
Страх пустого холста – это то, с чем должен столкнуться на своем пути каждый художник. В первом уроке, Джама поделится своими самыми эффективными правилами преодоления подобных препятствий, с которыми сталкиваются начинающие художники. Раскрывая абстрактные техники окрашивания, Джама научит вас оформлять и визуализировать сильные идеи на чистом листе.
• Сторителлинг и композиция
Один из основных столпов сторителлинга – это сильная композиция. В этом уроке Джама детально разбереткинематографический сторителлинг и соответствующие композиционные правила. Вы изучите основы света, цвета, угла камеры и многое другое.
Продолжительность: 04:08:00
Качество видео: PCRec
Видео: AVC/H.264, 1280x720, ~200 kbps
Аудио: AAC, 2 ch, 160 kbps

MediaInfo:

Общее
Полное имя : G:\Photoshop\LearnSquared - Narrative Concept Art\1. Design Principles\1-1.Course Overvie.mp4
Формат : MPEG-4
Профиль формата : Base Media / Version 2
Идентификатор кодека : mp42 (mp42/mp41/isom/avc1)
Размер файла : 27,3 Мбайт
Продолжительность : 10 м. 27 с.
Режим общего битрейта : Переменный
Общий поток : 365 Кбит/сек
Дата кодирования : UTC 2016-02-15 17:12:49
Дата пометки : UTC 2016-02-15 17:12:49
Видео
Идентификатор : 1
Формат : AVC
Формат/Информация : Advanced Video Codec
Профиль формата : High@L3.1
Настройки формата : CABAC / 5 Ref Frames
Параметр CABAC формата : Да
Параметр RefFrames формата : 5 кадров
Идентификатор кодека : avc1
Идентификатор кодека/Информация : Advanced Video Coding
Продолжительность : 10 м. 27 с.
Битрейт : 200 Кбит/сек
Ширина : 1 280 пикселей
Высота : 720 пикселей
Соотношение сторон : 16:9
Режим частоты кадров : Постоянный
Частота кадров : 30,000 кадров/сек
Цветовое пространство : YUV
Субдискретизация насыщенности : 4:2:0
Битовая глубина : 8 бит
Тип развёртки : Прогрессивная
Бит/(Пиксели*Кадры) : 0.007
Размер потока : 15,0 Мбайт (55%)
Библиотека кодирования : x264 core 148 r11 a01e339
Настройки программы : cabac=1 / ref=5 / deblock=1:0:0 / analyse=0x3:0x113 / me=umh / subme=8 / psy=1 / psy_rd=1.00:0.00 / mixed_ref=1 / me_range=16 / chroma_me=1 / trellis=1 / 8x8dct=1 / cqm=0 / deadzone=21,11 / fast_pskip=1 / chroma_qp_offset=-2 / threads=22 / lookahead_threads=3 / sliced_threads=0 / nr=0 / decimate=1 / interlaced=0 / bluray_compat=0 / stitchable=1 / constrained_intra=0 / bframes=3 / b_pyramid=2 / b_adapt=2 / b_bias=0 / direct=3 / weightb=1 / open_gop=0 / weightp=2 / keyint=infinite / keyint_min=30 / scenecut=40 / intra_refresh=0 / rc_lookahead=50 / rc=2pass / mbtree=1 / bitrate=200 / ratetol=1.0 / qcomp=0.60 / qpmin=5 / qpmax=69 / qpstep=4 / cplxblur=20.0 / qblur=0.5 / vbv_maxrate=2750 / vbv_bufsize=7500 / nal_hrd=none / filler=0 / ip_ratio=1.40 / aq=1:1.00
Дата кодирования : UTC 2016-02-15 17:12:49
Дата пометки : UTC 2016-02-15 17:12:49
Цветовой диапазон : Limited
Основные цвета : BT.709
Характеристики трансфера : BT.709
Коэффициенты матрицы : BT.709
Codec configuration box : avcC
Аудио
Идентификатор : 2
Формат : AAC LC
Формат/Информация : Advanced Audio Codec Low Complexity
Идентификатор кодека : mp4a-40-2
Продолжительность : 10 м. 27 с.
Вид битрейта : Переменный
Битрейт : 160 Кбит/сек
Каналы : 2 канала
Channel layout : L R
Частота : 48,0 КГц
Частота кадров : 46,875 кадров/сек (1024 SPF)
Метод сжатия : С потерями
Размер потока : 12,0 Мбайт (44%)
Дата кодирования : UTC 2016-02-15 17:12:49
Дата пометки : UTC 2016-02-15 17:12:49

Дополнительная информация:

Adobe Photoshop CC
Скриншоты:
Скачать .torrent

Чтобы скачать торрент-файл

Jama Jurabaev - Narrative Concept Art Part 1,2 (2017)

Вам нужно Авторизоваться на сайте под своим логином. Если у Вы ещё не зарегистрированы, тогда Вам нужно пройти Регистрацию


Показать сообщения:    
Ответить на тему

Скачать Jama Jurabaev - Narrative Concept Art Part 1,2 (2017) торрент бесплатно. Отзывы, слив складчины.

Текущее время: Сегодня 01:28

Часовой пояс: GMT + 4



Вы не можете начинать темы
Вы не можете отвечать на сообщения
Вы не можете редактировать свои сообщения
Вы не можете удалять свои сообщения
Вы не можете голосовать в опросах
Вы не можете прикреплять файлы к сообщениям
Вы не можете скачивать файлы