Ash Thorp - Main Title Design (2016) торрент

Ответить на тему
 
Автор Сообщение

Prescious ®

Ash Thorp | Main Title Design (2016) PCRec - Автор: Ash Thorp
Производство: Learn Squared
Жанр: Создание титров
Описание:
Следуйте указаниям Эша Торпа, обладателя многочисленных наград по дизайну, и вы научитесь создавать детализированные и наделенные смыслом титры. Вместе с Джамой Джурабаевым студенты изучат основные принципы успешных титров, а затем применят эти понятия при создании своих собственных проектов титров.

Продолжение описания:

1. Анализ титров
2. Типографика
3. Контролируемый эксперимент
4. Основы графического дизайна
5. Графический дизайн
6. 3D ПО
7. Композитинга 3D рендеров
8. Разум сильнее мышц
Об учителе:
Эш Торп является графическим дизайнером, иллюстратором, художником и креативным директором множества медиа проектов, в том числе художественных фильмов, коммерческой рекламы, а также печатного дизайна..
С раннего возраста Эш тяготел к рисованию и проводил бесчисленные часы за созданием иллюстраций, навеянных комиксами и классические фильмами,такими как Звездные Войны. Его страсть к искусству в сочетании с его любовью к художественным фильмам заставила его начать карьеру в киноиндустрии. За свой интересный стиль Эш быстро получил признание за удивительный UI (пользовательский интерфейс) в игре Эндера и Вспомнить Всё. Торп также внес свой вклад в разработк и концепции для Спектр (Джеймс Бонд), В поле зрения, Прометей, X-Men , Человек-Паук 2, Call of Duty, и еще много игр и фильмов. Его работа была отмечена в различных изданиях, таких как Motionographer, ImagineFX, Kotaku и Art of VFX.
Продолжительность: 11:09:00
Качество видео: PCRec
Видео: AVC/H.264, 1920x1080, ~1005 kbps
Аудио: AAC, 2 ch, 256 kbps

MediaInfo:

Общее
Полное имя : G:\Cinema 4D\Learn Squared - Main Title Design [ENG-RUS]\1. Analyzing Titles\1601C_AT_01A_01_01 - Meet Ash Thorp.mp4
Формат : MPEG-4
Профиль формата : Base Media / Version 2
Идентификатор кодека : mp42 (mp42/mp41/isom/avc1)
Размер файла : 10,4 Мбайт
Продолжительность : 1 м. 8 с.
Режим общего битрейта : Переменный
Общий поток : 1 265 Кбит/сек
Дата кодирования : UTC 2016-02-15 16:59:47
Дата пометки : UTC 2016-02-15 16:59:47
Видео
Идентификатор : 1
Формат : AVC
Формат/Информация : Advanced Video Codec
Профиль формата : High@L4
Настройки формата : CABAC / 4 Ref Frames
Параметр CABAC формата : Да
Параметр RefFrames формата : 4 кадра
Идентификатор кодека : avc1
Идентификатор кодека/Информация : Advanced Video Coding
Продолжительность : 1 м. 8 с.
Битрейт : 1 005 Кбит/сек
Ширина : 1 920 пикселей
Высота : 1 080 пикселей
Соотношение сторон : 16:9
Режим частоты кадров : Постоянный
Частота кадров : 30,000 кадров/сек
Цветовое пространство : YUV
Субдискретизация насыщенности : 4:2:0
Битовая глубина : 8 бит
Тип развёртки : Прогрессивная
Бит/(Пиксели*Кадры) : 0.016
Размер потока : 8,25 Мбайт (79%)
Библиотека кодирования : x264 core 148 r11 a01e339
Настройки программы : cabac=1 / ref=4 / deblock=1:0:0 / analyse=0x3:0x113 / me=umh / subme=8 / psy=1 / psy_rd=1.00:0.00 / mixed_ref=1 / me_range=16 / chroma_me=1 / trellis=1 / 8x8dct=1 / cqm=0 / deadzone=21,11 / fast_pskip=1 / chroma_qp_offset=-2 / threads=34 / lookahead_threads=5 / sliced_threads=0 / nr=0 / decimate=1 / interlaced=0 / bluray_compat=0 / stitchable=1 / constrained_intra=0 / bframes=3 / b_pyramid=2 / b_adapt=2 / b_bias=0 / direct=3 / weightb=1 / open_gop=0 / weightp=2 / keyint=infinite / keyint_min=30 / scenecut=40 / intra_refresh=0 / rc_lookahead=50 / rc=crf / mbtree=1 / crf=20.0 / qcomp=0.60 / qpmin=5 / qpmax=69 / qpstep=4 / vbv_maxrate=4950 / vbv_bufsize=13500 / crf_max=0.0 / nal_hrd=none / filler=0 / ip_ratio=1.40 / aq=1:1.00
Дата кодирования : UTC 2016-02-15 16:59:47
Дата пометки : UTC 2016-02-15 16:59:47
Цветовой диапазон : Limited
Основные цвета : BT.709
Характеристики трансфера : BT.709
Коэффициенты матрицы : BT.709
Codec configuration box : avcC
Аудио
Идентификатор : 2
Формат : AAC LC
Формат/Информация : Advanced Audio Codec Low Complexity
Идентификатор кодека : mp4a-40-2
Продолжительность : 1 м. 8 с.
Вид битрейта : Переменный
Битрейт : 256 Кбит/сек
Каналы : 2 канала
Channel layout : L R
Частота : 48,0 КГц
Частота кадров : 46,875 кадров/сек (1024 SPF)
Метод сжатия : С потерями
Размер потока : 2,10 Мбайт (20%)
Дата кодирования : UTC 2016-02-15 16:59:47
Дата пометки : UTC 2016-02-15 16:59:47

Дополнительная информация:

Adobe Photoshop, Adobe Illustrator, Adobe Bridge, Font Explorer, Mind Node, Adobe InDesign, Cinema 4D Studio R16, Octane Render, Marvelous Designer
Скриншоты:
Скачать .torrent

Чтобы скачать торрент-файл

Ash Thorp - Main Title Design (2016)

Вам нужно Авторизоваться на сайте под своим логином. Если у Вы ещё не зарегистрированы, тогда Вам нужно пройти Регистрацию


Показать сообщения:    
Ответить на тему

Скачать Ash Thorp - Main Title Design (2016) торрент бесплатно. Отзывы, слив складчины.

Текущее время: Сегодня 18:48

Часовой пояс: GMT + 4



Вы не можете начинать темы
Вы не можете отвечать на сообщения
Вы не можете редактировать свои сообщения
Вы не можете удалять свои сообщения
Вы не можете голосовать в опросах
Вы не можете прикреплять файлы к сообщениям
Вы не можете скачивать файлы