Adam Swaab - Houdini Particles (2018) торрент

Ответить на тему
 
Автор Сообщение

Prescious ®

Adam Swaab | Houdini Particles (2018) PCRec - Автор: Adam Swaab
Производство: Learn Squared
Жанр: Создание видео
Описание:
Симулирование частиц может показаться вам сложным занятием, но на самом деле это не так. Под руководством опытного учителя по эффектам Adam Swaab, вы создадите свою качественную систему частиц с нуля. Вы изучите все возможности работы с динамикой в Houdini, без которой создать красивую симуляцию будет просто невозможно.

Уроки входящие в этот курс:

Солверы с привязкой ко времени
Прежде чем переходить в HoudiniPOP сети частиц, мы разберемся что происходит за кулисами, создав несколько таких солверов с нуля. Это даст вам понимание окружения для симуляции, данных и как вообще можно добавить свой функционал в уже встроенные в Houdini солверы.
Введение в частицы
Мы зайдем в HoudiniPOP сети и изучим основы симуляции частиц. Здесь вы познакомитесь с основами нашей системы динамики, включая источники частиц, силы, колайдеры и т.д. Эти знания нам пригодятся, чтобы сделать системы более сложными в следующих уроках.
Хореография частиц
Теперь, когда мы уже знаем основы, давайте посмотрим на более тонкий аспект симуляции частиц, а именно контроль. В этом уроке мы научимся управлять таймингом, влиять на направление и поток движения, а также посмотрим на более искусные способы управления частицами.
Рендеринг частиц
Что же нам делать со всеми этими красиво двигающемся точками? В этом уроке мы посмотрим на разные способы рендера частиц, а также вы увидите разные хитрости, по созданию интересных эффектов с помощью рендера Mantra.
Продолжительность: 09:00:00
Качество видео: PCRec
Видео: AVC/H.264, 1920x1080, ~138 kbps
Аудио: MP3, 2 ch, 126 kbps

MediaInfo:

Общее
Полное имя : G:\Houdini\Learn Squared - Houdini Particles by Adam Swaab\Lesson 1 Time-based Solver\1.1 Lesson Overview\1.1.1 introduction.mp4
Формат : MPEG-4
Профиль формата : Base Media / Version 2
Идентификатор кодека : mp42 (isom/mp42)
Размер файла : 2,59 Мбайт
Продолжительность : 1 м. 21 с.
Режим общего битрейта : Переменный
Общий поток : 266 Кбит/сек
Дата кодирования : UTC 2018-01-04 18:29:36
Дата пометки : UTC 2018-01-04 18:29:36
Видео
Идентификатор : 1
Формат : AVC
Формат/Информация : Advanced Video Codec
Профиль формата : Baseline@L4.1
Настройки формата : 1 Ref Frames
Параметр CABAC формата : Нет
Параметр RefFrames формата : 1 кадр
Идентификатор кодека : avc1
Идентификатор кодека/Информация : Advanced Video Coding
Продолжительность : 1 м. 21 с.
Битрейт : 138 Кбит/сек
Ширина : 1 920 пикселей
Высота : 1 080 пикселей
Соотношение сторон : 16:9
Режим частоты кадров : Постоянный
Частота кадров : 30,000 кадров/сек
Стандарт вещания : NTSC
Цветовое пространство : YUV
Субдискретизация насыщенности : 4:2:0
Битовая глубина : 8 бит
Тип развёртки : Прогрессивная
Бит/(Пиксели*Кадры) : 0.002
Размер потока : 1,34 Мбайт (52%)
Язык : English
Дата кодирования : UTC 2018-01-04 18:29:36
Дата пометки : UTC 2018-01-04 18:29:36
Цветовой диапазон : Limited
Codec configuration box : avcC
Аудио
Идентификатор : 2
Формат : AAC LC
Формат/Информация : Advanced Audio Codec Low Complexity
Идентификатор кодека : mp4a-40-2
Продолжительность : 1 м. 21 с.
Вид битрейта : Переменный
Битрейт : 126 Кбит/сек
Максимальный битрейт : 330 Кбит/сек
Каналы : 2 канала
Channel layout : L R
Частота : 44,1 КГц
Частота кадров : 43,066 кадра/сек (1024 SPF)
Метод сжатия : С потерями
Размер потока : 1,22 Мбайт (47%)
Язык : English
Дата кодирования : UTC 2018-01-04 18:29:36
Дата пометки : UTC 2018-01-04 18:29:36

Дополнительная информация:

SideFX Houdini
Скриншоты:
Скачать .torrent

Чтобы скачать торрент-файл

Adam Swaab - Houdini Particles (2018)

Вам нужно Авторизоваться на сайте под своим логином. Если у Вы ещё не зарегистрированы, тогда Вам нужно пройти Регистрацию


Показать сообщения:    
Ответить на тему

Скачать Adam Swaab - Houdini Particles (2018) торрент бесплатно. Отзывы, слив складчины.

Текущее время: Сегодня 11:03

Часовой пояс: GMT + 4



Вы не можете начинать темы
Вы не можете отвечать на сообщения
Вы не можете редактировать свои сообщения
Вы не можете удалять свои сообщения
Вы не можете голосовать в опросах
Вы не можете прикреплять файлы к сообщениям
Вы не можете скачивать файлы