Michael Rigley - Design for Production: Workflow (2017) торрент

Ответить на тему
 
Автор Сообщение

Prescious ®

Michael Rigley | Design for Production: Workflow (2017) PCRec - Автор: Michael Rigley
Производство: Learn Squared
Жанр: Создание видео
Описание:
Научитесь создавать эффектные профессиональные стилфреймы в Cinema 4D и After Effects вместе с признанным арт-директором, Майклом Ригли! Майкл проведет вас через весь процесс работы над проектом: от интерпритации брифа до создания и визуализации сложных трехмерных сцен. Вас ждет высокий профессиональный подход к процессу разработки и дизайна. По окончанию обучения вы сможете пополнить свое портфолио великолепной работой и получите фундаментальные знания о профессиональной организации рабочего процесса.

Продолжение описания:

Содержание курса:
Знакомство.
Это обзорное занятие, на котором вы получите базовые знания, необходимые для прохождения курса. Майкл расскажет о брифах, креативных презентациях, историях, раскадровках и референсах. Далее вы изучите базовые процедурные принципы, которые использует Майкл при работе в Cinema 4D, узнаете о настройках рабочего пространства и основных техниках работы в программе.
Знакомство с Cinema 4D.
Приготовьтесь погрузиться в мир Cinema 4D и применить на практике процедурные принципы Майкла! На этом занятии вы будете усложнять геометрические модели, созданные в прошлый раз. Познакомитесь с основами X-Particles и создадите сложные системы частиц для последующей интеграции с мографом Cinema 4D.
Текстурирование, освещение + визуализация.
Композиция и освещение — это ключ к созданию эффектных картинок. Майкл покажет, как правильно выстроить сцену с точки зрения композиции, дополнить ее деталями вокруг камер и настроить освещение для последующей визуализации. Вы также создадите текстуры высокого разрешения в After Effects, научитесь работать с настройками в Octane и выполните многопроходную визуализацию для дальнейшего композитинга.
Композитинг в After Effects.
На этой неделе мы соберем вместе все то, что создали на предыдущих занятиях. После того как пасы визуализации будут импортированы в After Effects, Майкл покажет, как работать с деталями изображения, создавать профессиональные композиты и формировать финальную картинку.
Продолжительность: 06:00:00
Качество видео: PCRec
Видео: AVC/H.264, 1920x1080, ~300kbps
Аудио: AAC, 2 ch, 256kbps

MediaInfo:

Общее
Полное имя : G:\Cinema 4D\Learn Squared - Design for Production Workflow\1-Getting Started\Guidance\Conclusion\Homework.mp4
Формат : MPEG-4
Профиль формата : Base Media / Version 2
Идентификатор кодека : mp42 (mp42/mp41/isom/avc1)
Размер файла : 9,24 Мбайт
Продолжительность : 3 м. 17 с.
Режим общего битрейта : Переменный
Общий поток : 393 Кбит/сек
Дата кодирования : UTC 2016-09-18 19:12:31
Дата пометки : UTC 2016-09-18 19:12:31
Видео
Идентификатор : 1
Формат : AVC
Формат/Информация : Advanced Video Codec
Профиль формата : High@L4
Настройки формата : CABAC / 4 Ref Frames
Параметр CABAC формата : Да
Параметр RefFrames формата : 4 кадра
Идентификатор кодека : avc1
Идентификатор кодека/Информация : Advanced Video Coding
Продолжительность : 3 м. 16 с.
Битрейт : 133 Кбит/сек
Номинальный битрейт : 300 Кбит/сек
Ширина : 1 920 пикселей
Высота : 1 080 пикселей
Соотношение сторон : 16:9
Режим частоты кадров : Постоянный
Частота кадров : 30,000 кадров/сек
Цветовое пространство : YUV
Субдискретизация насыщенности : 4:2:0
Битовая глубина : 8 бит
Тип развёртки : Прогрессивная
Бит/(Пиксели*Кадры) : 0.002
Размер потока : 3,11 Мбайт (34%)
Библиотека кодирования : x264 core 148 r10 3f5ed56
Настройки программы : cabac=1 / ref=4 / deblock=1:0:0 / analyse=0x3:0x113 / me=umh / subme=8 / psy=1 / psy_rd=1.00:0.00 / mixed_ref=1 / me_range=16 / chroma_me=1 / trellis=1 / 8x8dct=1 / cqm=0 / deadzone=21,11 / fast_pskip=1 / chroma_qp_offset=-2 / threads=34 / lookahead_threads=5 / sliced_threads=0 / nr=0 / decimate=1 / interlaced=0 / bluray_compat=0 / stitchable=1 / constrained_intra=0 / bframes=3 / b_pyramid=2 / b_adapt=2 / b_bias=0 / direct=3 / weightb=1 / open_gop=0 / weightp=2 / keyint=infinite / keyint_min=30 / scenecut=40 / intra_refresh=0 / rc_lookahead=50 / rc=2pass / mbtree=1 / bitrate=300 / ratetol=1.0 / qcomp=0.60 / qpmin=5 / qpmax=69 / qpstep=4 / cplxblur=20.0 / qblur=0.5 / vbv_maxrate=4950 / vbv_bufsize=13500 / nal_hrd=none / filler=0 / ip_ratio=1.40 / aq=1:1.00
Дата кодирования : UTC 2016-09-18 19:12:31
Дата пометки : UTC 2016-09-18 19:12:31
Цветовой диапазон : Limited
Основные цвета : BT.709
Характеристики трансфера : BT.709
Коэффициенты матрицы : BT.709
Codec configuration box : avcC
Аудио
Идентификатор : 2
Формат : AAC LC
Формат/Информация : Advanced Audio Codec Low Complexity
Идентификатор кодека : mp4a-40-2
Продолжительность : 3 м. 17 с.
Вид битрейта : Переменный
Битрейт : 256 Кбит/сек
Каналы : 2 канала
Channel layout : L R
Частота : 48,0 КГц
Частота кадров : 46,875 кадров/сек (1024 SPF)
Метод сжатия : С потерями
Размер потока : 6,01 Мбайт (65%)
Дата кодирования : UTC 2016-09-18 19:12:31
Дата пометки : UTC 2016-09-18 19:12:31

Дополнительная информация:

Cinema 4D, Adobe After Effects, Adobe Photoshop, Octane Render, X-Particles, GenArts Sapphire, Adobe Bridge
Скриншоты:
Скачать .torrent

Чтобы скачать торрент-файл

Michael Rigley - Design for Production: Workflow (2017)

Вам нужно Авторизоваться на сайте под своим логином. Если у Вы ещё не зарегистрированы, тогда Вам нужно пройти Регистрацию


Показать сообщения:    
Ответить на тему

Скачать Michael Rigley - Design for Production: Workflow (2017) торрент бесплатно. Отзывы, слив складчины.

Текущее время: Сегодня 19:12

Часовой пояс: GMT + 4



Вы не можете начинать темы
Вы не можете отвечать на сообщения
Вы не можете редактировать свои сообщения
Вы не можете удалять свои сообщения
Вы не можете голосовать в опросах
Вы не можете прикреплять файлы к сообщениям
Вы не можете скачивать файлы