Андрей Выдрик - Сила Фокуса: 5 шагов к притягиванию денег с помощью силы мышления (2017) торрент

Ответить на тему
 
Автор Сообщение

Prescious ®

Андрей Выдрик | Сила Фокуса: 5 шагов к притягиванию денег с помощью силы мышления (2017) PCRec - Автор: Андрей Выдрик
Жанр: Видеокурсы
Описание:
Как перестать терять возможности из-за расфокуса и начать притягивать деньги с помощью мышления, используя мыслительные паттерны богатых людей.
-Начни притягивать в жизнь Большие деньги, даже больше, чем ты сейчас мечтаешь (ты будешь удивлен как это легко).
-Избеги позорного провала в целях, как бывает у многих целеустремленных и перспективных...
-Начни работать и зарабатывать быстрее и с удовольствием…
-Пойми, как не только ставить, но и как достигать любую цель…
-Узнай как быстро вырабатывать привычки, как у самых богатых и успешных предпринимателей мира.
-Открой мощные ритуалы по работе с мышлением, и почему они критичны для достижения целей
-Начни по-настоящему гордиться собой...
-Получи те знания, которые уже никто не отнимет...
-Вступай в очень малочисленный, так называемый клуб «манифестаторов», тех людей, которые воплощают свои мечты в реальность...
+ 75 минут ценнейшего контента, как создать себе внутренний фокус и обрести силу притягивать деньги в свою жизнь с помощью силы мышления
+ 15 пошаговых видео-инструкций, чтобы навсегда победить прерывания и неудержимо двигаться к целям

Продолжение описания:

+ Простые и понятные задания, которые помогут тебе выработать внутренний фокус и приблизиться к мышлению богатого человека
Бонусы:
Бонус 1: Книга Ивана Зимбицкого «Отступники — Секретная система, создающая миллионеров, которая всегда работает» (такого ты еще не читал!!!)
Бонус 2: Книга «Освободи Свой Мозг», чтобы создать себе «электронный мозг» и избавиться от перегруза, освободить время на себя, спорт и любимые хобби
Бонус 3: Мини-тренинг «ТОП-3 Причины, Которые Не Дают Тебе Получать Желаемых Результатов», чтобы начать получать от бизнеса те результаты, которых ты желаешь и заслуживаешь
Бонус 4: Мини-тренинг «Как Обрести Мышление Хозяина И Заставить Его Работать На Твой Бизнес», чтобы строить бизнес системно, действовать уверенно, и получать результаты от бизнеса Выше ожиданий
Бонус 5: Набор Медитаций Фокуса, чтобы ты смог в любой момент вернуть себе железный фокус на целях
Продолжительность: 01:40:04
Качество видео: PCRec
Видео: AVC/H.264, 1280x720, ~209 kbps
Аудио: AAC, 2 ch, 256 kbps

MediaInfo:

Video
ID : 1
Format : AVC
Format/Info : Advanced Video Codec
Format profile : High@L3.2
Format settings, CABAC : Yes
Format settings, ReFrames : 5 frames
Format settings, GOP : M=4, N=60
Codec ID : avc1
Codec ID/Info : Advanced Video Coding
Duration : 3 min
Bit rate : 209 kb/s
Width : 1 280 pixels
Height : 720 pixels
Display aspect ratio : 16:9
Frame rate mode : Constant
Frame rate : 20.000 FPS
Color space : YUV
Chroma subsampling : 4:2:0
Bit depth : 8 bits
Scan type : Progressive
Bits/(Pixel*Frame) : 0.011
Stream size : 4.56 MiB (45%)
Writing library : x264 core 148 r10 90a61ec
Encoding settings : cabac=1 / ref=5 / deblock=1:0:0 / analyse=0x3:0x113 / me=hex / subme=8 / psy=1 / psy_rd=1.00:0.00 / mixed_ref=1 / me_range=16 / chroma_me=1 / trellis=2 / 8x8dct=1 / cqm=0 / deadzone=21,11 / fast_pskip=1 / chroma_qp_offset=-2 / threads=22 / lookahead_threads=3 / sliced_threads=0 / nr=0 / decimate=1 / interlaced=0 / bluray_compat=0 / stitchable=1 / constrained_intra=0 / bframes=3 / b_pyramid=2 / b_adapt=1 / b_bias=0 / direct=3 / weightb=1 / open_gop=0 / weightp=2 / keyint=infinite / keyint_min=20 / scenecut=40 / intra_refresh=0 / rc_lookahead=50 / rc=2pass / mbtree=1 / bitrate=209 / ratetol=1.0 / qcomp=0.60 / qpmin=5 / qpmax=69 / qpstep=4 / cplxblur=20.0 / qblur=0.5 / vbv_maxrate=2750 / vbv_bufsize=7500 / nal_hrd=none / filler=0 / ip_ratio=1.40 / aq=1:1.00
Encoded date : UTC 2017-04-21 15:01:38
Tagged date : UTC 2017-04-21 15:01:38
Color range : Limited
Color primaries : BT.709
Transfer characteristics : BT.709
Matrix coefficients : BT.709
Audio
ID : 2
Format : AAC
Format/Info : Advanced Audio Codec
Format profile : LC
Codec ID : 40
Duration : 3 min
Bit rate mode : Constant
Bit rate : 256 kb/s
Channel(s) : 2 channels
Channel positions : Front: L R
Sampling rate : 48.0 kHz
Frame rate : 46.875 FPS (1024 spf)
Compression mode : Lossy
Stream size : 5.59 MiB (55%)
Encoded date : UTC 2017-04-21 15:01:38
Tagged date : UTC 2017-04-21 15:01:38
Скриншоты:
Скачать .torrent

Чтобы скачать торрент-файл

Андрей Выдрик - Сила Фокуса: 5 шагов к притягиванию денег с помощью силы мышления (2017)

Вам нужно Авторизоваться на сайте под своим логином. Если у Вы ещё не зарегистрированы, тогда Вам нужно пройти Регистрацию


Показать сообщения:    
Ответить на тему

Скачать Андрей Выдрик - Сила Фокуса: 5 шагов к притягиванию денег с помощью силы мышления (2017) торрент бесплатно. Отзывы, слив складчины.

Текущее время: Сегодня 01:53

Часовой пояс: GMT + 4



Вы не можете начинать темы
Вы не можете отвечать на сообщения
Вы не можете редактировать свои сообщения
Вы не можете удалять свои сообщения
Вы не можете голосовать в опросах
Вы не можете прикреплять файлы к сообщениям
Вы не можете скачивать файлы