Евгения Киселева - Устраняем глубинные травмы детства (2017) торрент

Ответить на тему
 
Автор Сообщение

Prescious ®

Евгения Киселева | Устраняем глубинные травмы детства (2017) PCRec - Автор: Евгения Киселева
Жанр: Тренинг
Описание:
Как стать счастливчиком, устранив глубинные травмы детства эксклюзивный тренинг.
Этот тренинг для Вас, если Вы:
в поиске инструментов для гармонизации собственной жизни;
готовы сотрудничать со своим подсознанием;
хотите осознать и устранить глубинные причины происходящего в Вашей жизни (в любой сфере);
осознаете, что устраняя глубинные травмы детства, Вы создаете себе счастливое настоящее;
«застряли» на месте и готовы выйти на новый виток развития;
ощущаете, что "ходите по кругу" и оказываетесь в повторяющихся ситуациях;
жаждете освободиться от груза прошлого и с предвкушением и любопытством смотреть в будущее;
готовы познать себя настоящего и вспомнить свои истинные цели и потребности души;
ощущаете жажду перемен;
хотите ощущать себя счастливчиком по жизни.
Продолжительность: 32:55:09
Качество видео: PCRec
Видео: AVC/H.264, 640x480, ~86,5 kbps
Аудио: AAC, 1 ch, 67 Kbps

MediaInfo:

Video
ID : 1
Format : AVC
Format/Info : Advanced Video Codec
Format profile : Baseline@L3
Format settings, CABAC : No
Format settings, ReFrames : 1 frame
Format settings, GOP : M=1, N=125
Codec ID : avc1
Codec ID/Info : Advanced Video Coding
Duration : 2 h 15 min
Bit rate : 86.5 kb/s
Width : 640 pixels
Height : 480 pixels
Display aspect ratio : 4:3
Frame rate mode : Variable
Frame rate : 25.000 FPS
Minimum frame rate : 1.471 FPS
Maximum frame rate : 25.000 FPS
Color space : YUV
Chroma subsampling : 4:2:0
Bit depth : 8 bits
Scan type : Progressive
Bits/(Pixel*Frame) : 0.011
Stream size : 83.5 MiB (55%)
Writing library : x264 core 144 r2525 40bb568
Encoding settings : cabac=0 / ref=1 / deblock=1:0:0 / analyse=0x1:0x111 / me=hex / subme=2 / psy=1 / psy_rd=1.00:0.00 / mixed_ref=0 / me_range=16 / chroma_me=1 / trellis=0 / 8x8dct=0 / cqm=0 / deadzone=21,11 / fast_pskip=1 / chroma_qp_offset=0 / threads=1 / lookahead_threads=1 / sliced_threads=0 / nr=0 / decimate=1 / interlaced=0 / bluray_compat=0 / constrained_intra=0 / bframes=0 / weightp=0 / keyint=125 / keyint_min=5 / scenecut=40 / intra_refresh=0 / rc=crf / mbtree=0 / crf=22.0 / qcomp=0.70 / qpmin=0 / qpmax=69 / qpstep=4 / ip_ratio=1.40 / aq=1:1.00
Color range : Full
Audio
ID : 2
Format : AAC
Format/Info : Advanced Audio Codec
Format profile : LC
Codec ID : 40
Duration : 2 h 15 min
Bit rate mode : Constant
Bit rate : 67.5 kb/s
Channel(s) : 2 channels
Channel(s)_Original : 1 channel
Channel positions : Front: C
Sampling rate : 48.0 kHz
Frame rate : 46.875 FPS (1024 spf)
Compression mode : Lossy
Stream size : 65.2 MiB (43%)
Default : Yes
Alternate group : 1
Скриншоты:
Скачать .torrent

Чтобы скачать торрент-файл

Евгения Киселева - Устраняем глубинные травмы детства (2017)

Вам нужно Авторизоваться на сайте под своим логином. Если у Вы ещё не зарегистрированы, тогда Вам нужно пройти Регистрацию


Показать сообщения:    
Ответить на тему

Скачать Евгения Киселева - Устраняем глубинные травмы детства (2017) торрент бесплатно. Отзывы, слив складчины.

Текущее время: Сегодня 10:08

Часовой пояс: GMT + 4



Вы не можете начинать темы
Вы не можете отвечать на сообщения
Вы не можете редактировать свои сообщения
Вы не можете удалять свои сообщения
Вы не можете голосовать в опросах
Вы не можете прикреплять файлы к сообщениям
Вы не можете скачивать файлы