Новые раздачи

26-Ноя
26-Ноя
26-Ноя
25-Ноя
25-Ноя
25-Ноя
25-Ноя
24-Ноя
24-Ноя
24-Ноя
24-Ноя
24-Ноя
24-Ноя
24-Ноя
24-Ноя

Важное

Джулиан Бланк - Мастерство Трансформации (2017) торрент

Ответить на тему
 
Автор Сообщение

Prescious ®

Джулиан Бланк | Мастерство Трансформации (2017) PCRec - Автор: Джулиан Бланк
Жанр: Видеокурсы
Описание:
Первый курс о личностном росте от Real Social Dynamics от самого ненавистного человека в мире - Джулиана Бланка.
ТАК, О ЧЕМ ЖЕ ВСЕ-ТАКИ КУРС:
Итак, скажем, ты боишься выступать перед аудиторией из нескольких человек или общаться с незнакомыми людьми. В таком случае у тебя есть два варианта.
Вариант А – Ты начинаешь через силу заставлять себя выступать и общаться, и через некоторое время этот страх притупляется, и ты не замечаешь его, но стоит сделать паузу, как страх возвращается, словно никуда не исчезал.
Вариант Б – Ты можешь найти причину своего страха, понять, почему тебя это пугает и избавиться от нее раз и навсегда.
Мастерство трансформации – это вариант Б.
Продолжительность: 07:05:02
Качество видео: PCRec
Видео: WMV2, 720х406, ~989 Kbps
Аудио: WMA, 2 ch, 192 kbps

MediaInfo:

Video
ID : 1
Format : WMV2
Codec ID : WMV2
Codec ID/Info : Windows Media Video 8
Description of the codec : wmv2
Duration : 26 min
Bit rate : 989 kb/s
Width : 720 pixels
Height : 406 pixels
Display aspect ratio : 16:9
Frame rate : 23.976 (23976/1000) FPS
Bit depth : 8 bits
Bits/(Pixel*Frame) : 0.141
Stream size : 187 MiB (80%)
Audio
ID : 2
Format : WMA
Format version : Version 2
Codec ID : 161
Codec ID/Info : Windows Media Audio
Description of the codec : Windows Media Audio V8
Duration : 26 min
Bit rate : 192 kb/s
Channel(s) : 2 channels
Sampling rate : 48.0 kHz
Bit depth : 16 bits
Stream size : 36.3 MiB (15%)
Скриншоты:
Скачать .torrent

Чтобы скачать торрент-файл

Джулиан Бланк - Мастерство Трансформации (2017)

Вам нужно Авторизоваться на сайте под своим логином. Если у Вы ещё не зарегистрированы, тогда Вам нужно пройти Регистрацию


Показать сообщения:    
Ответить на тему

Скачать Джулиан Бланк - Мастерство Трансформации (2017) торрент бесплатно. Отзывы, слив складчины.

Текущее время: Сегодня 14:07

Часовой пояс: GMT + 4



Вы не можете начинать темы
Вы не можете отвечать на сообщения
Вы не можете редактировать свои сообщения
Вы не можете удалять свои сообщения
Вы не можете голосовать в опросах
Вы не можете прикреплять файлы к сообщениям
Вы не можете скачивать файлы