Michael Rigley - Design for Production: Animation (2017) торрент

Ответить на тему
 
Автор Сообщение

Prescious ®

Michael Rigley | Design for Production: Animation (2017) PCRec - Автор: Michael Rigley
Производство: Learn Squared
Жанр: Анимация
Описание:
Воплоти в жизнь свои дизайн-проекты вместе с заслуженным арт-директором, Майком Ригли! Майкл проведет вас через весь процесс 3D-анимации и видео-производства. Вы начнете с планирования сцены, детально изучите трехмерные анимационные техники Cinema 4D и закончите композитингом в After Effects. На занятиях вы получите исчерпывающие знания о том, как профессионально выстраивать рабочий процесс и создавать эффектные работы, независимо от того, будете проходить этот курс после окончания курса «Дизайн для видео-производства: Рабочий процесс» или изучите только этот курс, чтобы отточить определенные навыки,

Содержание курса:

Знакомство. Приготовьтесь погрузиться в мир анимации! На этом занятии Майкл покажет вам, как заложить основу для успешного проекта. Он проведет вас по всем этапам работы и познакомит со всеми необходимыми инструментами. В конце занятия вы возьмете аудио и построите бордоматик, чтобы спланировать ролик.
Работа над анимацией. Вам ждут первые этапы работы над 3D-анимацией. Майкл покажет, как построить аниматик (грубую анимацию). Вы создадите и настроите рабочий проект и начнете набрасывать камеры и базовую анимацию. Майкл расскажет о важности разработки анимационного прототипа и покажет, как следует подходить к решению сложных задач.
Предварительный монтаж. Пришло время применить знания о прототипировании к активной сцене. Майкл расскажет, как интегрировать графику в кадр и анимировать дополнительные элементы. Взяв за основу установленные камеры и базовый тайминг, вы усложните созданную сцену. Затем создадите освещение и проведете тестовую визуализацию, перед тем как отослать файлы в низком разрешении.
Завершение. На последнем занятии мы соберем вместе все элементы в After Effects. Майкл продемонстрирует свой подход к многопроходному композитингу. Будут охвачены темы от импорта и настройки композиций до анимации проходов освещения, создания эффектов и формирования итоговой картинки. В конце мы поговорим об экспорте и оценке финального видео.
Продолжительность: 05:54:00
Качество видео: PCRec
Видео: AVC/H.264, 1920x1080, ~3946kbps
Аудио: MP3, 2 ch, 128 Kbps

MediaInfo:

Общее
Полное имя : G:\Cinema 4D\Learn Squared - Design forProduction, Animation (ENG-RUS)\01 Getting Started\01 Introduction\01 Meet Michael Rigley.mp3
Формат : MPEG Audio
Размер файла : 1,92 Мбайт
Продолжительность : 2 м. 4 с.
Режим общего битрейта : Постоянный
Общий поток : 128 Кбит/сек
Дата записи : 2018-08-02 18:50
Аудио
Формат : MPEG Audio
Версия формата : Version 1
Профиль формата : Layer 3
Настройки формата : Joint stereo / MS Stereo
Продолжительность : 2 м. 4 с.
Вид битрейта : Постоянный
Битрейт : 128 Кбит/сек
Каналы : 2 канала
Частота : 48,0 КГц
Частота кадров : 41,667 кадра/сек (1152 SPF)
Метод сжатия : С потерями
Размер потока : 1,90 Мбайт (99%)
Видео
Идентификатор : 1
Формат : AVC
Формат/Информация : Advanced Video Codec
Профиль формата : High@L4
Настройки формата : CABAC / 4 Ref Frames
Параметр CABAC формата : Да
Параметр RefFrames формата : 4 кадра
Идентификатор кодека : avc1
Идентификатор кодека/Информация : Advanced Video Coding
Продолжительность : 2 м. 4 с.
Битрейт : 3 946 Кбит/сек
Ширина : 1 920 пикселей
Высота : 1 080 пикселей
Соотношение сторон : 16:9
Режим частоты кадров : Переменный
Частота кадров : 30,000 кадров/сек
Минимальная частота кадров : 29,970 кадров/сек
Максимальная частота кадров : 30,045 кадров/сек
Цветовое пространство : YUV
Субдискретизация насыщенности : 4:2:0
Битовая глубина : 8 бит
Тип развёртки : Прогрессивная
Бит/(Пиксели*Кадры) : 0.063
Размер потока : 58,4 Мбайт (100%)
Библиотека кодирования : x264 core 148 r10 90a61ec
Настройки программы : cabac=1 / ref=4 / deblock=1:0:0 / analyse=0x3:0x113 / me=hex / subme=8 / psy=1 / psy_rd=1.00:0.00 / mixed_ref=1 / me_range=16 / chroma_me=1 / trellis=2 / 8x8dct=1 / cqm=0 / deadzone=21,11 / fast_pskip=1 / chroma_qp_offset=-2 / threads=34 / lookahead_threads=5 / sliced_threads=0 / nr=0 / decimate=1 / interlaced=0 / bluray_compat=0 / stitchable=1 / constrained_intra=0 / bframes=3 / b_pyramid=2 / b_adapt=1 / b_bias=0 / direct=3 / weightb=1 / open_gop=0 / weightp=2 / keyint=infinite / keyint_min=30 / scenecut=40 / intra_refresh=0 / rc_lookahead=50 / rc=crf / mbtree=1 / crf=20.0 / qcomp=0.60 / qpmin=5 / qpmax=69 / qpstep=4 / vbv_maxrate=4950 / vbv_bufsize=13500 / crf_max=0.0 / nal_hrd=none / filler=0 / ip_ratio=1.40 / aq=1:1.00
Цветовой диапазон : Limited
Основные цвета : BT.709
Характеристики трансфера : BT.709
Коэффициенты матрицы : BT.709
Codec configuration box : avcC

Дополнительная информация:

Cinema 4D, Adobe After Effects, Adobe Premiere Pro, Octane Render, X-Particles
Скриншоты:

Дополнительные скриншоты:


Скачать .torrent

Чтобы скачать торрент-файл

Michael Rigley - Design for Production: Animation (2017)

Вам нужно Авторизоваться на сайте под своим логином. Если у Вы ещё не зарегистрированы, тогда Вам нужно пройти Регистрацию


Показать сообщения:    
Ответить на тему

Скачать Michael Rigley - Design for Production: Animation (2017) торрент бесплатно. Отзывы, слив складчины.

Текущее время: Сегодня 06:18

Часовой пояс: GMT + 4



Вы не можете начинать темы
Вы не можете отвечать на сообщения
Вы не можете редактировать свои сообщения
Вы не можете удалять свои сообщения
Вы не можете голосовать в опросах
Вы не можете прикреплять файлы к сообщениям
Вы не можете скачивать файлы