Олег Герт - Коммерческая иллюстрация (2020) торрент

Ответить на тему
 
Автор Сообщение

Prescious ®

Олег Герт | Коммерческая иллюстрация (2020) - Автор: Олег Герт
Жанр: Графика
Описание:
Этот курс идеален для начинающих!
Курс по коммерческой иллюстрации ведет Олег Герт. Работает иллюстратором и арт-директором в международном рекламном агентстве. Рисует с детства, окончил художественную школу с красным дипломом. Коммерческой иллюстрацией занимается около 10 лет.

Продолжение описания:

Рисует в основном на планшете Wacom Intuos в Photoshop. Иногда руками в технике dotwork. За эти годы поработал с разными заказчиками, как из России, так и из за рубежа. Как с частными заказчиками, так и с компаниями.
За это время стиль отрисовки видоизменялся, пробовал новое, оттачивал старое, сейчас в "арсенале" несколько немного разных стилей которые Олег предлагает заказчику. Любит рисовать принты для одежды, постеры, рекламные иллюстрации
Продолжительность: 07:14:06
Качество видео: PCRec
Видео: AVC/H.264, 720x1280 - 1080x1920, 25fps, ~693 Кбит/сек
Аудио: AAC, 2 ch, 126 Кбит/сек

MediaInfo:

Общее
Полное имя : D:\Новая папка\[Highlights] Коммерческая иллюстрация (2020)\07\007.mp4
Формат : MPEG-4
Профиль формата : Base Media / Version 2
Идентификатор кодека : mp42 (mp42/mp41/isom/avc1)
Размер файла : 56,9 Мбайт
Продолжительность : 3 м. 12 с.
Режим общего битрейта : Переменный
Общий поток : 2 484 Кбит/сек
Дата кодирования : UTC 2020-08-06 08:16:23
Дата пометки : UTC 2020-08-06 08:16:23
Видео
Идентификатор : 1
Формат : AVC
Формат/Информация : Advanced Video Codec
Профиль формата : High@L4
Настройки формата : CABAC / 5 Ref Frames
Параметр CABAC формата : Да
Параметр RefFrames формата : 5 кадров
Идентификатор кодека : avc1
Идентификатор кодека/Информация : Advanced Video Coding
Продолжительность : 3 м. 12 с.
Битрейт : 2 226 Кбит/сек
Ширина : 1 920 пикселей
Высота : 1 080 пикселей
Соотношение сторон : 16:9
Режим частоты кадров : Постоянный
Частота кадров : 25,000 кадров/сек
Цветовое пространство : YUV
Субдискретизация насыщенности : 4:2:0
Битовая глубина : 8 бит
Тип развёртки : Прогрессивная
Бит/(Пиксели*Кадры) : 0.043
Размер потока : 51,0 Мбайт (90%)
Библиотека кодирования : x264 core 160 r10 22fcbe1
Настройки программы : cabac=1 / ref=5 / deblock=1:0:0 / analyse=0x3:0x113 / me=hex / subme=8 / psy=1 / psy_rd=1.00:0.00 / mixed_ref=1 / me_range=16 / chroma_me=1 / trellis=2 / 8x8dct=1 / cqm=0 / deadzone=21,11 / fast_pskip=1 / chroma_qp_offset=-2 / threads=34 / lookahead_threads=5 / sliced_threads=0 / nr=0 / decimate=1 / interlaced=0 / bluray_compat=0 / stitchable=1 / constrained_intra=0 / bframes=3 / b_pyramid=2 / b_adapt=2 / b_bias=0 / direct=3 / weightb=1 / open_gop=0 / weightp=2 / keyint=infinite / keyint_min=25 / scenecut=40 / intra_refresh=0 / rc_lookahead=50 / rc=crf / mbtree=1 / crf=20.0 / qcomp=0.60 / qpmin=5 / qpmax=69 / qpstep=4 / vbv_maxrate=5500 / vbv_bufsize=15000 / crf_max=0.0 / nal_hrd=none / filler=0 / ip_ratio=1.40 / aq=1:1.00
Дата кодирования : UTC 2020-08-06 08:16:23
Дата пометки : UTC 2020-08-06 08:16:23
Цветовой диапазон : Limited
Основные цвета : BT.709
Характеристики трансфера : BT.709
Коэффициенты матрицы : BT.709
Codec configuration box : avcC
Аудио
Идентификатор : 2
Формат : AAC LC
Формат/Информация : Advanced Audio Codec Low Complexity
Идентификатор кодека : mp4a-40-2
Продолжительность : 3 м. 12 с.
Вид битрейта : Переменный
Битрейт : 253 Кбит/сек
Каналы : 2 канала
Channel layout : L R
Частота : 48,0 КГц
Частота кадров : 46,875 кадров/сек (1024 SPF)
Метод сжатия : С потерями
Размер потока : 5,80 Мбайт (10%)
Дата кодирования : UTC 2020-08-06 08:16:23
Дата пометки : UTC 2020-08-06 08:16:23

Программа курса:

ЗАНЯТИЕ №1. ВВЕДЕНИЕ В ПРОФЕССИЮ
* Знакомство с преподавателем
* О коммерческой иллюстрации, видах и трендах
* Продвинутая работа с Photoshop (создание своих кистей,
настройки)
* Возможности графического планшета
* Практика (свет и тени, штриховка и др.)
ЗАНЯТИЕ №2. ФРИЛАНС VS. СТУДИЯ. ЭТАПЫ СОЗДАНИЯ ИЛЛЮСТРАЦИИ.
* Плюсы и минусы работы на фрилансе
* Как происходит работа на фрилансе и в студии
* Процесс заказа и создания иллюстрации
* Правильный реальный бриф
* Домашнее практическое задание от российского
иллюстраторского агентства
ЗАНЯТИЕ №3. КРЕАТИВНОСТЬ.
* Как придумать, что рисовать
* Участие в челленджах, вписываемся во всё
* Референсы. Собираем правильные мудборды
* Придумываем двух персонажей и взаимоотношение
между ними
ЗАНЯТИЕ №4. ЭТАПЫ СОЗДАНИЯ ПЕРСОНАЖЕЙ.
* Зачем нужен персонаж
* Форма и поза, эмоции, выбор цвета, освещение
* Рисуем персонажа с разными эмоциями и позами
* Быстрые скетчи разного света
* Определяемся с цветовой гаммой
* Смотрим свои часто используемые эмодзи - и рисуем
по ним своего персонажа
ЗАНЯТИЕ №5. СТИЛИ В ИЛЛЮСТРАЦИИ.
* Какие бывают
* Как найти свою стилистику
* Dotwork, lineart и другие стили
* Рисуем своего персонажа в 4х разных техниках
ЗАНЯТИЕ №6. ОКРУЖЕНИЕ ПЕРСОНАЖА.
* Композиция в иллюстрации
* Рисуем несколько персонажей
* Создаем им окружение
ЗАНЯТИЕ №7. СКЕТЧИ.
* Прокачиваем навыки скетча
* Рисуем скетчи на скорость
* Их роль в иллюстрации
* Недельное рисование набросков
* Как копировать чужие стили и не скатиться
в плагиат
ЗАНЯТИЕ №8. ПОРТФОЛИО И ЗАРАБОТОК.
* Важность портфолио. Где и как продвигать себя
* Оформляем проект на Behance
* Самокритика в работе
* Монетизация своих работ
* Бумажная волокита: права на авторство, договора и т.д.
* Загружаем набор своих стикеров в telegram
* Регистрируемся и загружаем иллюстрации на стоки
Описание курса
Этот курс идеален для начинающих!
Курс по коммерческой иллюстрации ведет Олег Герт. Работает иллюстратором и арт-директором в международном рекламном агентстве. Рисует с детства, окончил художественную школу с красным дипломом. Коммерческой иллюстрацией занимается около 10 лет.
Рисует в основном на планшете Wacom Intuos в Photoshop. Иногда руками в технике dotwork. За эти годы поработал с разными заказчиками, как из России, так и из за рубежа. Как с частными заказчиками, так и с компаниями.
За это время стиль отрисовки видоизменялся, пробовал новое, оттачивал старое, сейчас в "арсенале" несколько немного разных стилей которые Олег предлагает заказчику. Любит рисовать принты для одежды, постеры, рекламные иллюстрации
Навыки
Что вы будете уметь уже через 2 месяца?
- Создавать с нуля крутые иллюстрации
- Знать инструменты Photoshop, уметь создавать кисти
- Создавать красивые элементы иллюстрации - контуры, штрихи, цвета
- Придумывать и рисовать стильные иллюстрации, быть в тренде
- Отработаете навыки рисования скетчей в недельной практике
- Научитесь выбирать подходящие цветовые сочетания
- Узнаете всё о заработке на иллюстрации (на то она и коммерческая)
И многое другое...
Скриншоты:
Скачать .torrent

Чтобы скачать торрент-файл

Олег Герт - Коммерческая иллюстрация (2020)

Вам нужно Авторизоваться на сайте под своим логином. Если у Вы ещё не зарегистрированы, тогда Вам нужно пройти Регистрацию


Показать сообщения:    
Ответить на тему

Скачать Олег Герт - Коммерческая иллюстрация (2020) торрент бесплатно. Отзывы, слив складчины.

Текущее время: Сегодня 10:41

Часовой пояс: GMT + 4



Вы не можете начинать темы
Вы не можете отвечать на сообщения
Вы не можете редактировать свои сообщения
Вы не можете удалять свои сообщения
Вы не можете голосовать в опросах
Вы не можете прикреплять файлы к сообщениям
Вы не можете скачивать файлы