Новые раздачи

03-Окт
03-Окт
03-Окт
03-Окт
03-Окт
03-Окт
03-Окт
03-Окт
03-Окт
03-Окт
03-Окт
03-Окт
03-Окт
03-Окт
03-Окт

Важное

Chung Kan - 3D Creature Modeling for Production (2015) торрент

Ответить на тему
 
Автор Сообщение

Prescious ®

Chung Kan | 3D Creature Modeling for Production (2015) PCRec [En, Ru] - Автор: Chung Kan
Производство: Gumroad
Жанр: Создание видео
Описание:
В этом уроке вы узнаете, как моделировать и скульптить бюст трехмерного существа, используя методы скульптинга и полигональное моделирование, которые используется в профессиональной среде для игр и кино. Вы не только узнаете, технические аспекты моделирования трехмерного существа, но и свой подход к творческому дизайну.

Продолжение описания:

Опыт использования Zbrush и Mudbox, а также 3dsmax является предпочтительным, но эти принципы и методы могут быть применены к другим пакетам моделирования и скульптинга.
Продолжительность: 8:02:44
Качество видео: PCRec
Язык озвучки: Английский, Русский
Видео: AVC/H.264, 1730x1080, ~4032 kbps
Аудио: AAC, 2 ch, 209 kbps
Аудио 2: MP3, 2 ch, 256 kbps (отдельным файлом)

MediaInfo:

General
Complete name : K:\[Gumroad] 3D Creature Modeling for Production [ENG-RUS]\Part1_Creature_BlockOut.mp4
Format : MPEG-4
Format profile : Base Media
Codec ID : isom (isom/iso2/avc1/mp41)
File size : 2.58 GiB
Duration : 1 h 27 min
Overall bit rate : 4 245 kb/s
Writing application : Lavf58.45.100
Video
ID : 1
Format : AVC
Format/Info : Advanced Video Codec
Format profile : High@L4
Format settings : CABAC / 4 Ref Frames
Format settings, CABAC : Yes
Format settings, Reference fra : 4 frames
Format settings, GOP : M=1, N=61
Codec ID : avc1
Codec ID/Info : Advanced Video Coding
Duration : 1 h 27 min
Duration_FirstFrame : 46 ms
Bit rate : 4 032 kb/s
Width : 1 730 pixels
Height : 1 080 pixels
Display aspect ratio : 16:10
Frame rate mode : Constant
Frame rate : 20.000 FPS
Color space : YUV
Chroma subsampling : 4:2:0
Bit depth : 8 bits
Scan type : Progressive
Bits/(Pixel*Frame) : 0.108
Stream size : 2.45 GiB (95%)
Tagged date : UTC 2020-12-23 01:03:47
Codec configuration box : avcC
Audio
ID : 2
Format : AAC LC
Format/Info : Advanced Audio Codec Low Complexity
Codec ID : mp4a-40-2
Duration : 1 h 27 min
Bit rate mode : Constant
Bit rate : 210 kb/s
Channel(s) : 2 channels
Channel layout : L R
Sampling rate : 44.1 kHz
Frame rate : 43.066 FPS (1024 SPF)
Compression mode : Lossy
Stream size : 131 MiB (5%)
Default : Yes
Alternate group : 1
Tagged date : UTC 2020-12-23 01:03:47

Дополнительная информация:

Программное обеспечение: ZBrush 4 R6 P2+ Mudbox 2015+ 3ds Max 2014+
Файлы примеров: Нет

Разделы:

Часть 1: Базовый набросок сетки (1 час. 27мин.)
Часть 2: Доработка детали базовой сетки (1 час. 41 мин.)
Часть 3А: Завершение базовой сетки (56 мин.)
Часть 3B: Завершение базовой сетки (56 мин.)
Часть 4: Скульптинг доспеха (1 час. 23 мин.)
Часть 5: Скульптинг существа (1 час .39 мин.)

Рассматриваемые темы:

3D набросок
Проектирование и концептуализация
Полигональное моделирование
Скульптинг твердых поверхностей (Hard Surface)
Органический скульптинг
Скриншоты:
Скачать .torrent

Чтобы скачать торрент-файл

Chung Kan - 3D Creature Modeling for Production (2015)

Вам нужно Авторизоваться на сайте под своим логином. Если у Вы ещё не зарегистрированы, тогда Вам нужно пройти Регистрацию


Показать сообщения:    
Ответить на тему

Скачать Chung Kan - 3D Creature Modeling for Production (2015) торрент бесплатно. Отзывы, слив складчины.

Текущее время: Сегодня 04:00

Часовой пояс: GMT + 4



Вы не можете начинать темы
Вы не можете отвечать на сообщения
Вы не можете редактировать свои сообщения
Вы не можете удалять свои сообщения
Вы не можете голосовать в опросах
Вы не можете прикреплять файлы к сообщениям
Вы не можете скачивать файлы