Jonathan Hamilton - Painting with Ambient occlusion (2016) торрент

Ответить на тему
 
Автор Сообщение

Prescious ®

Jonathan Hamilton | Painting with Ambient occlusion (2016) PCRec [En, Ru] - Автор: Jonathan Hamilton
Производство: CGCookie
Жанр: Создание видео
Описание:
1. После создания нескольких скетчей для выявления возможных вариаций света на картине, автор выполняет отрисовку штриховой иллюстрации с постепенным уменьшением непрозрачности. После чего начинает работу над ambient occlusion* слоем.
2. Для обработки AO используется мягкая черную Кисть по краям, после чего зачистит ненужные моменты инструментом Резинка. Продвигаясь по работе, Джонатан добавляет детали и корректирует наслоения до тех пор, пока все не займет свое место в пределах обозначенной 3D иллюстрации. Конечный АО слой устанавливается в режим смешивания Умножение.

Продолжение описания:

3. Однородные цвета устанавливаются под слой АО и рисуются непрозрачной Кистью. Каждый отдельный элемент проекта, от кожи до одежды, располагается на своем слое. Используемые в проекте оттенки темнее, чем в итоговой работе, поскольку автор хочет показать, как сцена будет выглядеть в затемнении.
4. Источники света добавляются один за другим на слоях наложения над слоями АО и однородных цветов. Свет рисуется непосредственно на изображении с помощью белой Кисти. Позже, участки со светом могут быть отредактированы с использованием редактора Оттенков/Насыщенности.
5. Как только все световые источники установлены, конечным шагом является доработка всего рисунка в целом, что включает в себя итоговый слой отрисовки, цветовой обработки и/или высветления.
Продолжительность: 00:14:00
Качество видео: PCRec
Язык озвучки: Английский, Русский
Видео: AVC/H.264, 1280x720, ~738kbps
Аудио: AAC, 2 ch, 128kbps
Аудио 2: MP3, 2 ch, 262kbps (отдельным файлом)

MediaInfo:

General
Complete name : K:\[CGCookie] Painting with Ambient occlusion [ENG-RUS]\CGCookie - Painting with Ambient Occlusion.mp4
Format : MPEG-4
Format profile : Base Media
Codec ID : isom (isom/iso2/avc1/mp41)
File size : 91.0 MiB
Duration : 14 min 20 s
Overall bit rate : 887 kb/s
Movie name : JonathanHamilton—Tutorial|FINALVIDEO
Tagged date : UTC 2014-08-07 17:11:43
Writing application : Lavf55.18.100
Cover : Yes
Rating : None
Part_ID : 000
Video
ID : 1
Format : AVC
Format/Info : Advanced Video Codec
Format profile : High@L3.1
Format settings : CABAC / 4 Ref Frames
Format settings, CABAC : Yes
Format settings, Reference fra : 4 frames
Codec ID : avc1
Codec ID/Info : Advanced Video Coding
Duration : 14 min 20 s
Bit rate : 739 kb/s
Width : 1 280 pixels
Height : 720 pixels
Display aspect ratio : 16:9
Frame rate mode : Constant
Frame rate : 30.000 FPS
Color space : YUV
Chroma subsampling : 4:2:0
Bit depth : 8 bits
Scan type : Progressive
Bits/(Pixel*Frame) : 0.027
Stream size : 75.8 MiB (83%)
Writing library : x264 core 138 r2358 9e941d1
Encoding settings : cabac=1 / ref=3 / deblock=1:0:0 / analyse=0x3:0x113 / me=hex / subme=7 / psy=1 / psy_rd=1.00:0.00 / mixed_ref=1 / me_range=16 / chroma_me=1 / trellis=1 / 8x8dct=1 / cqm=0 / deadzone=21,11 / fast_pskip=1 / chroma_qp_offset=-2 / threads=18 / lookahead_threads=3 / sliced_threads=0 / nr=0 / decimate=1 / interlaced=0 / bluray_compat=0 / constrained_intra=0 / bframes=3 / b_pyramid=2 / b_adapt=1 / b_bias=0 / direct=1 / weightb=1 / open_gop=0 / weightp=2 / keyint=250 / keyint_min=25 / scenecut=40 / intra_refresh=0 / rc_lookahead=40 / rc=crf / mbtree=1 / crf=18.0 / qcomp=0.60 / qpmin=0 / qpmax=69 / qpstep=4 / ip_ratio=1.40 / aq=1:1.00
Language : English
Codec configuration box : avcC
Audio
ID : 2
Format : AAC LC
Format/Info : Advanced Audio Codec Low Complexity
Codec ID : mp4a-40-2
Duration : 14 min 20 s
Bit rate mode : Constant
Bit rate : 128 kb/s
Channel(s) : 2 channels
Channel layout : L R
Sampling rate : 44.1 kHz
Frame rate : 43.066 FPS (1024 SPF)
Compression mode : Lossy
Stream size : 13.2 MiB (14%)
Language : English
Default : Yes
Alternate group : 1

Дополнительная информация:

Программное обеспечение: Photoshop
Файлы примеров: Есть

Об авторе:

В этот раз вам удастся поработать с художником с исключительным взглядом на рисование, который он сможет вам продемонстрировать. Подобному стилю рисования многие хотят научиться и его урок покажет основы создания чего-то особенного.
Скриншоты:
Скачать .torrent

Чтобы скачать торрент-файл

Jonathan Hamilton - Painting with Ambient occlusion (2016)

Вам нужно Авторизоваться на сайте под своим логином. Если у Вы ещё не зарегистрированы, тогда Вам нужно пройти Регистрацию


Показать сообщения:    
Ответить на тему

Скачать Jonathan Hamilton - Painting with Ambient occlusion (2016) торрент бесплатно. Отзывы, слив складчины.

Текущее время: Сегодня 09:37

Часовой пояс: GMT + 4



Вы не можете начинать темы
Вы не можете отвечать на сообщения
Вы не можете редактировать свои сообщения
Вы не можете удалять свои сообщения
Вы не можете голосовать в опросах
Вы не можете прикреплять файлы к сообщениям
Вы не можете скачивать файлы