Jonathan Lampel - Creating Plants in Blender (2016) торрент

Ответить на тему
 
Автор Сообщение

Prescious ®

Jonathan Lampel | Creating Plants in Blender (2016) PCRec [En, Ru] - Автор: Jonathan Lampel
Производство: CGCookie
Жанр: Создание видео
Описание:
Создание сцены CG-природы это та еще задачка, но не всегда! В этом курсе вы научитесь создавать модели и шейдеры 6 различных типов растений, таких как:
Сорняки
Грибы
Папоротник
Лиственные кусты
Плющ
Мох
Для каждого типа мы будем использовать немного разные техники, так что вы сможете увидеть все плюсы и минусы каждого подхода.
Продолжительность: 01:23:00
Качество видео: PCRec
Язык озвучки: Английский, Русский
Видео: AVC/H.264, 1920x1080, ~4570 kbps
Аудио: AAC, 2 ch, 128 kbps
Аудио 2: MP3, 2 ch, 128 kbps (отдельным файлом)

MediaInfo:

General
Complete name : K:\[CGCookie] Creating Plants in Blender [ENG-RUS]\00_Introduction.mp4
Format : MPEG-4
Format profile : Base Media
Codec ID : isom (isom/iso2/avc1/mp41)
File size : 19.2 MiB
Duration : 34 s 8 ms
Overall bit rate : 4 735 kb/s
Movie name : 00_Introduction
Tagged date : UTC 2017-03-28 13:39:17
Writing application : Lavf54.59.107
Cover : Yes
Rating : None
Part_ID : 000
Video
ID : 1
Format : AVC
Format/Info : Advanced Video Codec
Format profile : High@L4
Format settings : CABAC / 4 Ref Frames
Format settings, CABAC : Yes
Format settings, Reference fra : 4 frames
Codec ID : avc1
Codec ID/Info : Advanced Video Coding
Duration : 27 s 134 ms
Bit rate : 4 570 kb/s
Width : 1 920 pixels
Height : 1 080 pixels
Display aspect ratio : 16:9
Frame rate mode : Constant
Frame rate : 30.000 FPS
Color space : YUV
Chroma subsampling : 4:2:0
Bit depth : 8 bits
Scan type : Progressive
Bits/(Pixel*Frame) : 0.073
Stream size : 14.8 MiB (77%)
Writing library : x264 core 129 r2230 1cffe9f
Encoding settings : cabac=1 / ref=3 / deblock=1:0:0 / analyse=0x3:0x113 / me=hex / subme=7 / psy=1 / psy_rd=1.00:0.00 / mixed_ref=1 / me_range=16 / chroma_me=1 / trellis=1 / 8x8dct=1 / cqm=0 / deadzone=21,11 / fast_pskip=1 / chroma_qp_offset=-2 / threads=18 / lookahead_threads=3 / sliced_threads=0 / nr=0 / decimate=1 / interlaced=0 / bluray_compat=0 / constrained_intra=0 / bframes=3 / b_pyramid=2 / b_adapt=1 / b_bias=0 / direct=1 / weightb=1 / open_gop=0 / weightp=2 / keyint=250 / keyint_min=25 / scenecut=40 / intra_refresh=0 / rc_lookahead=40 / rc=crf / mbtree=1 / crf=18.0 / qcomp=0.60 / qpmin=0 / qpmax=69 / qpstep=4 / ip_ratio=1.40 / aq=1:1.00
Language : English
Codec configuration box : avcC
Audio
ID : 2
Format : AAC LC
Format/Info : Advanced Audio Codec Low Complexity
Codec ID : mp4a-40-2
Duration : 34 s 8 ms
Duration_LastFrame : -10 ms
Bit rate mode : Constant
Bit rate : 128 kb/s
Channel(s) : 2 channels
Channel layout : L R
Sampling rate : 44.1 kHz
Frame rate : 43.066 FPS (1024 SPF)
Compression mode : Lossy
Stream size : 533 KiB (3%)
Language : English
Default : Yes
Alternate group : 1

Дополнительная информация:

Программное обеспечение: Blender
Файлы примеров: Есть
Скриншоты:
Скачать .torrent

Чтобы скачать торрент-файл

Jonathan Lampel - Creating Plants in Blender (2016)

Вам нужно Авторизоваться на сайте под своим логином. Если у Вы ещё не зарегистрированы, тогда Вам нужно пройти Регистрацию


Показать сообщения:    
Ответить на тему

Скачать Jonathan Lampel - Creating Plants in Blender (2016) торрент бесплатно. Отзывы, слив складчины.

Текущее время: Сегодня 10:25

Часовой пояс: GMT + 4



Вы не можете начинать темы
Вы не можете отвечать на сообщения
Вы не можете редактировать свои сообщения
Вы не можете удалять свои сообщения
Вы не можете голосовать в опросах
Вы не можете прикреплять файлы к сообщениям
Вы не можете скачивать файлы