Даниил Гартман - Современная иллюстрация (2020) торрент

Ответить на тему
 
Автор Сообщение

Prescious ®

Даниил Гартман | Современная иллюстрация (2020) - Автор: Даниил Гартман
Производство: VideoSmile
Жанр: Графика
Описание:
Экспресс-курс состоит из 20 занятий, в ходе которых вы познакомитесь с базовыми навыками создания иллюстраций. Научитесь анализировать референсы, работать с композицией, создавать скетчи, подбирать правильные цвета и т. д.
Помимо этого, курс содержит особые авторские приёмы создания профессиональных иллюстраций, которые существенно упростят и ускорят работу.

Продолжение описания

Мы считаем, что наиболее важная часть обучения — практика и обратная связь. Именно поэтому в каждой главе этого курса вы будете много рисовать и по итогу курса получите более 5 классных иллюстраций в своё портфолио. А помогать вам в этом, помимо автора, будут наши кураторы, которые также являются практикующими художниками и иллюстраторами.
Продолжительность: 02:34:11
Видео: AVC/H.264, 1280x720-1920x1080, 800 Кбит/сек
Аудио: AAC, 2 ch, 101 Кбит/сек

MediaInfo:

Общее
Полное имя : D:\[Даниил Гартман] Современная иллюстрация (2020)\Глава 4. Большая иллюстрация с несколькими персонажами\5. Детали и текстуры.mp4
Формат : MPEG-4
Профиль формата : Base Media
Идентификатор кодека : isom (isom/iso2/avc1/mp41)
Размер файла : 103 Мбайт
Продолжительность : 15 м. 59 с.
Режим общего битрейта : Переменный
Общий поток : 905 Кбит/сек
Программа кодирования : Lavf58.20.100
Видео
Идентификатор : 1
Формат : AVC
Формат/Информация : Advanced Video Codec
Профиль формата : High@L4
Настройки формата : CABAC / 4 Ref Frames
Параметр CABAC формата : Да
Параметр RefFrames формата : 4 кадра
Идентификатор кодека : avc1
Идентификатор кодека/Информация : Advanced Video Coding
Продолжительность : 15 м. 59 с.
Битрейт : 800 Кбит/сек
Ширина : 1 920 пикселей
Высота : 1 080 пикселей
Соотношение сторон : 16:9
Режим частоты кадров : Постоянный
Частота кадров : 29,970 (29970/1000) кадров/сек
Цветовое пространство : YUV
Субдискретизация насыщенности : 4:2:0
Битовая глубина : 8 бит
Тип развёртки : Прогрессивная
Бит/(Пиксели*Кадры) : 0.013
Размер потока : 91,0 Мбайт (88%)
Библиотека кодирования : x264 core 148
Настройки программы : cabac=1 / ref=3 / deblock=1:0:0 / analyse=0x3:0x113 / me=hex / subme=7 / psy=1 / psy_rd=1.00:0.00 / mixed_ref=1 / me_range=16 / chroma_me=1 / trellis=1 / 8x8dct=1 / cqm=0 / deadzone=21,11 / fast_pskip=1 / chroma_qp_offset=-2 / threads=12 / lookahead_threads=2 / sliced_threads=0 / nr=0 / decimate=1 / interlaced=0 / bluray_compat=0 / constrained_intra=0 / bframes=3 / b_pyramid=2 / b_adapt=1 / b_bias=0 / direct=1 / weightb=1 / open_gop=0 / weightp=2 / keyint=250 / keyint_min=25 / scenecut=40 / intra_refresh=0 / rc_lookahead=40 / rc=2pass / mbtree=1 / bitrate=800 / ratetol=1.0 / qcomp=0.60 / qpmin=0 / qpmax=69 / qpstep=4 / cplxblur=20.0 / qblur=0.5 / ip_ratio=1.40 / aq=1:1.00
Язык : English
Codec configuration box : avcC
Аудио
Идентификатор : 2
Формат : AAC LC
Формат/Информация : Advanced Audio Codec Low Complexity
Идентификатор кодека : mp4a-40-2
Продолжительность : 15 м. 59 с.
Duration_LastFrame : -20 мс.
Вид битрейта : Переменный
Битрейт : 101 Кбит/сек
Максимальный битрейт : 128 Кбит/сек
Каналы : 1 канал
Channel layout : C
Частота : 44,1 КГц
Частота кадров : 43,066 кадра/сек (1024 SPF)
Метод сжатия : С потерями
Размер потока : 11,5 Мбайт (11%)
Язык : English
Default : Да
Alternate group : 1
Скриншоты:
Скачать .torrent

Чтобы скачать торрент-файл

Даниил Гартман - Современная иллюстрация (2020)

Вам нужно Авторизоваться на сайте под своим логином. Если у Вы ещё не зарегистрированы, тогда Вам нужно пройти Регистрацию


Показать сообщения:    
Ответить на тему

Скачать Даниил Гартман - Современная иллюстрация (2020) торрент бесплатно. Отзывы, слив складчины.

Текущее время: Сегодня 09:42

Часовой пояс: GMT + 4



Вы не можете начинать темы
Вы не можете отвечать на сообщения
Вы не можете редактировать свои сообщения
Вы не можете удалять свои сообщения
Вы не можете голосовать в опросах
Вы не можете прикреплять файлы к сообщениям
Вы не можете скачивать файлы