Новые раздачи

03-Окт
03-Окт
03-Окт
03-Окт
03-Окт
03-Окт
03-Окт
03-Окт
03-Окт
03-Окт
03-Окт
03-Окт
03-Окт
03-Окт
03-Окт

Важное

Светлана Короткова - Бухучет и налогообложение для начинающих +1С: «Бухгалтерия 8.3» (2016) торрент

Ответить на тему
 
Автор Сообщение

Prescious ®

Светлана Короткова | Бухучет и налогообложение для начинающих +1С: «Бухгалтерия 8.3» (2016) PCRec - Автор: Светлана Короткова
Жанр: Видеокурсы
Описание:
Подготовка специалистов в области бухгалтерского учета и налогообложения, способных сформировать эффективную систему бухгалтерского учета, управлять деятельностью малого или среднего предприятия в области бухучета и налогообложения, а также сформировать у слушателей практические навыки, необходимые в работе бухгалтера и специалиста по налогообложению.
Содержание:
Урок 1. «Основы бухгалтерского учета»
Урок 2 «Учет кассовых операций»
Урок 3 «Учет операций по расчетному счету»
Урок 4. «Подотчетные лица»
Урок 5. «Учет кадров и зарплаты. НДФЛ»

Продолжение описания:

Урок 7. «Отпуск. Увольнение»
Урок 8. «Отчетность в фонды»
Урок 9. «Расчеты с поставщиками»
Урок 10. «Расчеты с покупателями и заказчиками»
Урок 11. «Расчеты с покупателями по полученным авансам»
Урок 12. «Материалы»
Урок 13. «Основные средства»
Урок 14 «НДС»
Урок 15. «Налог на прибыль»
Урок 16. «Баланс, отчетность»
Продолжительность: 15:00:00
Качество видео: PCRec
Видео: AVC/H.264, 1920x1080, ~2047 Kbps
Аудио: AAC, 2 ch, 320 Kbps

MediaInfo:

Video
ID : 2
Format : AVC
Format/Info : Advanced Video Codec
Format profile : Main@L4
Format settings, CABAC : Yes
Format settings, ReFrames : 2 frames
Format settings, GOP : M=1, N=25
Codec ID : avc1
Codec ID/Info : Advanced Video Coding
Duration : 5 min
Bit rate : 2 047 kb/s
Width : 1 920 pixels
Height : 1 080 pixels
Display aspect ratio : 16:9
Frame rate mode : Constant
Frame rate : 25.000 FPS
Color space : YUV
Chroma subsampling : 4:2:0
Bit depth : 8 bits
Scan type : Progressive
Bits/(Pixel*Frame) : 0.039
Stream size : 87.6 MiB (86%)
Encoded date : UTC 2016-11-28 13:20:18
Tagged date : UTC 2016-11-28 13:20:18
Audio
ID : 1
Format : AAC
Format/Info : Advanced Audio Codec
Format profile : LC
Codec ID : 40
Duration : 5 min
Duration_LastFrame : -10 ms
Bit rate mode : Constant
Bit rate : 320 kb/s
Channel(s) : 2 channels
Channel positions : Front: L R
Sampling rate : 44.1 kHz
Frame rate : 43.066 FPS (1024 spf)
Compression mode : Lossy
Stream size : 13.7 MiB (13%)
Default : Yes
Alternate group : 1
Encoded date : UTC 2016-11-28 13:20:18
Tagged date : UTC 2016-11-28 13:20:18
Скриншоты:

Дополнительные скриншоты:

Скачать .torrent

Чтобы скачать торрент-файл

Светлана Короткова - Бухучет и налогообложение для начинающих +1С: «Бухгалтерия 8.3» (2016)

Вам нужно Авторизоваться на сайте под своим логином. Если у Вы ещё не зарегистрированы, тогда Вам нужно пройти Регистрацию


Показать сообщения:    
Ответить на тему

Скачать Светлана Короткова - Бухучет и налогообложение для начинающих +1С: «Бухгалтерия 8.3» (2016) торрент бесплатно. Отзывы, слив складчины.

Текущее время: Сегодня 02:53

Часовой пояс: GMT + 4



Вы не можете начинать темы
Вы не можете отвечать на сообщения
Вы не можете редактировать свои сообщения
Вы не можете удалять свои сообщения
Вы не можете голосовать в опросах
Вы не можете прикреплять файлы к сообщениям
Вы не можете скачивать файлы