Николай Петров - CPA бизнес на Автопилоте (2013) торрент

Ответить на тему
 
Автор Сообщение

Prescious ®

Николай Петров | CPA бизнес на Автопилоте (2013) PCRec - Автор: Николай Петров
Жанр: Видеокурсы
Описание:
Рад представить Вашему вниманию курс "СРА бизнес на Автопилоте". В курсе показано и рассказано, что и как нужно делать чтобы успешно настроить СРА бизнес на автопилоте. Предлагаю Вам стартовать в Бизнесе, который уже через 20 дней принесет Вам прибыль.
Видеокурс содержит практическое руководство, показывающее, как начать бизнес в интернет самому без помощи сторонних разработчиков, специальных программ и глубоких знаний программирования. Да, определенные усилия приложить придется, но на выходе Вы получите не только готовый бизнес, но и базовые знания сайтостроения, которые сослужат хорошую службу в будущем, особенно если Вы хотите задержаться в Интернете надолго.

Продолжение описания:

Содержание:
1 Что такое СРА?
2 Обзор СРА сетей!
3 Регистрация в СРА сетях!
4 Виды трафика (бесплатные)
5 Виды трафика (платные)
6 Создание лендинг пейдж
7 Создание купонного сайта
Бонусы:
1. видеокурс Контекстная реклама Яндекс Директ на Автопилоте
2. Видеокурс Контекстная реклама на Google AdWords
3. Видеокурс Как создать бизнес без начального капитала
4. Видеокурс Сбросьте оковы долгов!
5. Комплект МЕГА ГРАФИКИ
Продолжительность: 02:30:00
Качество видео: PCRec
Видео: AVC/H.264, 1280x720, ~229 kbps
Аудио: AAC, 2 ch, 53 kbps

MediaInfo:

Video
ID : 1
Format : AVC
Format/Info : Advanced Video Codec
Format profile : High@L3.1
Format settings, CABAC : Yes
Format settings, ReFrames : 4 frames
Codec ID : avc1
Codec ID/Info : Advanced Video Coding
Duration : 24 min
Source duration : 24 min
Bit rate : 299 kb/s
Width : 1 280 pixels
Height : 720 pixels
Display aspect ratio : 16:9
Frame rate mode : Constant
Frame rate : 5.000 FPS
Color space : YUV
Chroma subsampling : 4:2:0
Bit depth : 8 bits
Scan type : Progressive
Bits/(Pixel*Frame) : 0.065
Stream size : 53.0 MiB (84%)
Source stream size : 53.0 MiB (84%)
Language : English
Encoded date : UTC 2013-07-09 17:32:38
Tagged date : UTC 2013-07-09 17:32:38
Color range : Limited
Color primaries : BT.709
Transfer characteristics : BT.709
Matrix coefficients : BT.709
mdhd_Duration : 1487331
Audio
ID : 2
Format : AAC
Format/Info : Advanced Audio Codec
Format profile : LC
Codec ID : 40
Duration : 24 min
Source duration : 24 min
Bit rate mode : Constant
Bit rate : 53.6 kb/s
Channel(s) : 2 channels
Channel positions : Front: L R
Sampling rate : 44.1 kHz
Frame rate : 43.066 FPS (1024 spf)
Compression mode : Lossy
Stream size : 9.50 MiB (15%)
Source stream size : 9.50 MiB (15%)
Language : English
Encoded date : UTC 2013-07-09 17:32:38
Tagged date : UTC 2013-07-09 17:32:38
mdhd_Duration : 1486315
Скриншоты:
Скачать .torrent

Чтобы скачать торрент-файл

Николай Петров - CPA бизнес на Автопилоте (2013)

Вам нужно Авторизоваться на сайте под своим логином. Если у Вы ещё не зарегистрированы, тогда Вам нужно пройти Регистрацию


Показать сообщения:    
Ответить на тему

Скачать Николай Петров - CPA бизнес на Автопилоте (2013) торрент бесплатно. Отзывы, слив складчины.

Текущее время: Сегодня 18:35

Часовой пояс: GMT + 4



Вы не можете начинать темы
Вы не можете отвечать на сообщения
Вы не можете редактировать свои сообщения
Вы не можете удалять свои сообщения
Вы не можете голосовать в опросах
Вы не можете прикреплять файлы к сообщениям
Вы не можете скачивать файлы