Новые раздачи

26-Ноя
26-Ноя
26-Ноя
25-Ноя
25-Ноя
25-Ноя
25-Ноя
24-Ноя
24-Ноя
24-Ноя
24-Ноя
24-Ноя
24-Ноя
24-Ноя
24-Ноя

Важное

Денис Коновалов - YouTube 2018 - Эффективная стратегия развития (2018) торрент

Ответить на тему
 
Автор Сообщение

Prescious ®

Денис Коновалов | YouTube 2018 - Эффективная стратегия развития (2018) PCRec - Автор: Денис Коновалов
Жанр: Видеокурсы
Описание:
Денис Коновалов [KONODEN] – эксперт в вопросах монетизации и продвижения YouTube-каналов, сертифицированный специалист YouTube.
Содержание видеокурса:
Вступление
Тренды на YouTube в 2018 году
Урок 1. «Контент-стратегия»
Урок 2. «Безопасность»
Урок 3. «Стратегия монетизации»
Три примера
YouTube канал или оффлайн бизнес
Тренды - практика
Практика - монетизации
График публикаций – практика
Коллаборация. Практика и шаблоны писем
Что не нужно делать на YouTube канале
Видео с высоким и низким фактором обнаружения. Практика.
Почему видео выстреливает. Практика.
Полезные сервисы, дающие конкурентные преимущества.
Анализ рисков. Практические аспекты.
Продолжительность: 12:00:00
Качество видео: PCRec
Видео: AVC/H.264, 1280x720, ~1081 kbps
Аудио: AAC, 2 ch, 126 Kbps

MediaInfo:

Video
ID : 1
Format : AVC
Format/Info : Advanced Video Codec
Format profile : Main@L3.1
Format settings, CABAC : Yes
Format settings, ReFrames : 3 frames
Codec ID : avc1
Codec ID/Info : Advanced Video Coding
Duration : 1 min
Bit rate : 1 081 kb/s
Width : 1 280 pixels
Height : 720 pixels
Display aspect ratio : 16:9
Frame rate mode : Constant
Frame rate : 30.000 FPS
Standard : NTSC
Color space : YUV
Chroma subsampling : 4:2:0
Bit depth : 8 bits
Scan type : Progressive
Bits/(Pixel*Frame) : 0.039
Stream size : 10.7 MiB (89%)
Language : English
Encoded date : UTC 2017-12-25 13:14:23
Tagged date : UTC 2017-12-25 13:14:23
Color range : Limited
Audio
ID : 2
Format : AAC
Format/Info : Advanced Audio Codec
Format profile : LC
Codec ID : 40
Duration : 1 min
Bit rate mode : Variable
Bit rate : 126 kb/s
Maximum bit rate : 151 kb/s
Channel(s) : 2 channels
Channel positions : Front: L R
Sampling rate : 44.1 kHz
Frame rate : 43.066 FPS (1024 spf)
Compression mode : Lossy
Stream size : 1.24 MiB (10%)
Language : English
Encoded date : UTC 2017-12-25 13:14:23
Tagged date : UTC 2017-12-25 13:14:23
Скриншоты:
Скачать .torrent

Чтобы скачать торрент-файл

Денис Коновалов - YouTube 2018 - Эффективная стратегия развития (2018)

Вам нужно Авторизоваться на сайте под своим логином. Если у Вы ещё не зарегистрированы, тогда Вам нужно пройти Регистрацию


Показать сообщения:    
Ответить на тему

Скачать Денис Коновалов - YouTube 2018 - Эффективная стратегия развития (2018) торрент бесплатно. Отзывы, слив складчины.

Текущее время: Сегодня 13:18

Часовой пояс: GMT + 4



Вы не можете начинать темы
Вы не можете отвечать на сообщения
Вы не можете редактировать свои сообщения
Вы не можете удалять свои сообщения
Вы не можете голосовать в опросах
Вы не можете прикреплять файлы к сообщениям
Вы не можете скачивать файлы