Кир Уланов и др. - Digital Business: Start. Пакет VIP (2017) торрент

Ответить на тему
 
Автор Сообщение

Prescious ®

Кир Уланов и др. | Digital Business: Start. Пакет VIP (2017) PCRec - Автор: Кир Уланов и др.
Жанр: Видеокурсы
Описание:
Digital Business: Start. Пакет VIP (2017) Видеокурс
Создан мощный фундамент для бизнеса: проведен глубокий анализ конкурентов и целевой аудитории бренда, разработана Big Idea бренда, построено уникальное позиционирование, готова основа для цепляющей brand-story.
Программа курса:
Блок-сессия 1
Создание уникального позиционирования и упаковка содержания вашего бизнеса
Блок-сессия 2
Создание стратегии продуктовой линейки, определение цен на продукты и стратегии реагирования на действия аудитории
Блок-сессия 3
Создание собственной стратегии маркетинговой воронки, с учетом специфики вашей ниши
Блок-сессия 4
Разбор плана проекта, плана ремаркетинга и плана выхода на $10 000 чистыми в месяц
Блок-сессия 5
VIP-сессия по разбору маркетинговых воронок участников с закрытым контентом от MG
Продолжительность: 29:00:00
Качество видео: PCRec
Видео: AVC/H.264, 1280x720, ~489 kbps
Аудио: AAC, 2 ch, 126 Kbps

MediaInfo:

Video
ID : 1
Format : AVC
Format/Info : Advanced Video Codec
Format profile : Baseline@L4.1
Format settings, CABAC : No
Format settings, ReFrames : 1 frame
Codec ID : avc1
Codec ID/Info : Advanced Video Coding
Duration : 33 s 0 ms
Bit rate : 478 kb/s
Width : 1 280 pixels
Height : 720 pixels
Display aspect ratio : 16:9
Frame rate mode : Constant
Frame rate : 30.000 FPS
Standard : NTSC
Color space : YUV
Chroma subsampling : 4:2:0
Bit depth : 8 bits
Scan type : Progressive
Bits/(Pixel*Frame) : 0.017
Stream size : 1.88 MiB (79%)
Language : English
Encoded date : UTC 2017-12-27 06:50:53
Tagged date : UTC 2017-12-27 06:50:53
Color range : Limited
Audio
ID : 2
Format : AAC
Format/Info : Advanced Audio Codec
Format profile : LC
Codec ID : 40
Duration : 33 s 42 ms
Bit rate mode : Variable
Bit rate : 126 kb/s
Maximum bit rate : 211 kb/s
Channel(s) : 2 channels
Channel positions : Front: L R
Sampling rate : 44.1 kHz
Frame rate : 43.066 FPS (1024 spf)
Compression mode : Lossy
Stream size : 507 KiB (21%)
Language : English
Encoded date : UTC 2017-12-27 06:50:53
Tagged date : UTC 2017-12-27 06:50:53
Скриншоты:
Скачать .torrent

Чтобы скачать торрент-файл

Кир Уланов и др. - Digital Business: Start. Пакет VIP (2017)

Вам нужно Авторизоваться на сайте под своим логином. Если у Вы ещё не зарегистрированы, тогда Вам нужно пройти Регистрацию


Показать сообщения:    
Ответить на тему

Скачать Кир Уланов и др. - Digital Business: Start. Пакет VIP (2017) торрент бесплатно. Отзывы, слив складчины.

Текущее время: Сегодня 09:55

Часовой пояс: GMT + 4



Вы не можете начинать темы
Вы не можете отвечать на сообщения
Вы не можете редактировать свои сообщения
Вы не можете удалять свои сообщения
Вы не можете голосовать в опросах
Вы не можете прикреплять файлы к сообщениям
Вы не можете скачивать файлы