Новые раздачи

26-Ноя
26-Ноя
26-Ноя
25-Ноя
25-Ноя
25-Ноя
25-Ноя
24-Ноя
24-Ноя
24-Ноя
24-Ноя
24-Ноя
24-Ноя
24-Ноя
24-Ноя

Важное

Коллектив - Expert trader. Комплект Пиранья (2014-2016) торрент

Ответить на тему
 
Автор Сообщение

Prescious ®

Коллектив | Expert trader. Комплект Пиранья (2014-2016) PCRec - Автор: Коллектив
Жанр: Видеокурсы
Описание:
Курс будет незаменим трейдерам, которые хотят совершать обдуманные входы в рынок, основываясь на проведенном анализе состояния рынка.
Подойдет как любителям скальпинга, так и для интрадейщиков и любителей входить в среднесрочные и долгосрочные сделки. В нем много времени уделяется проведению ежедневному анализу рынка и сбору статистики. Этот курс не для ленивых. Он для людей, которые понимают, что с помощью труда и усилий можно получать стабильный профит на рынке. Также в курсе присутствует достаточно много фишек, с помощью которых автор отточил методику входа в сделку, проверив их на собственном депозите.
Автор плотно использует объемный анализ, используя для этого программу Volfix.
Продолжительность: 45:00:00
Качество видео: PCRec
Видео: AVC/H.264, 1280x720, ~742 kbps
Аудио: AAC, 1 ch, 144 kbps

MediaInfo:

Video
ID : 1
Format : AVC
Format/Info : Advanced Video Codec
Format profile : High@L3.1
Format settings, CABAC : Yes
Format settings, ReFrames : 1 frame
Format settings, GOP : M=1, N=60
Codec ID : avc1
Codec ID/Info : Advanced Video Coding
Duration : 8 min
Bit rate : 594 kb/s
Maximum bit rate : 2 402 kb/s
Width : 1 280 pixels
Height : 720 pixels
Display aspect ratio : 16:9
Frame rate mode : Constant
Frame rate : 25.000 FPS
Color space : YUV
Chroma subsampling : 4:2:0
Bit depth : 8 bits
Scan type : Progressive
Bits/(Pixel*Frame) : 0.026
Stream size : 35.2 MiB (80%)
Tagged date : UTC 2014-06-30 06:15:09
Audio
ID : 2
Format : AAC
Format/Info : Advanced Audio Codec
Format profile : LC
Codec ID : 40
Duration : 8 min
Bit rate mode : Variable
Bit rate : 144 kb/s
Maximum bit rate : 151 kb/s
Channel(s) : 1 channel
Channel positions : Front: C
Sampling rate : 44.1 kHz
Frame rate : 43.066 FPS (1024 spf)
Compression mode : Lossy
Stream size : 8.53 MiB (19%)
Title : IsoMedia File Produced by Google, 5-11-2011
Encoded date : UTC 2014-06-30 06:15:08
Tagged date : UTC 2014-06-30 06:15:09
Скриншоты:

Дополнительные скриншоты:

Скачать .torrent

Чтобы скачать торрент-файл

Коллектив - Expert trader. Комплект Пиранья (2014-2016)

Вам нужно Авторизоваться на сайте под своим логином. Если у Вы ещё не зарегистрированы, тогда Вам нужно пройти Регистрацию


Показать сообщения:    
Ответить на тему

Скачать Коллектив - Expert trader. Комплект Пиранья (2014-2016) торрент бесплатно. Отзывы, слив складчины.

Текущее время: Сегодня 14:01

Часовой пояс: GMT + 4



Вы не можете начинать темы
Вы не можете отвечать на сообщения
Вы не можете редактировать свои сообщения
Вы не можете удалять свои сообщения
Вы не можете голосовать в опросах
Вы не можете прикреплять файлы к сообщениям
Вы не можете скачивать файлы