Nicolas Garilhe - Armor Creation in ZBrush (2015) торрент

Ответить на тему
 
Автор Сообщение

Prescious ®

Nicolas Garilhe | Armor Creation in ZBrush (2015) PCRec - Автор: Nicolas Garilhe
Производство: Uartsy
Жанр: Скульптинг
Описание:
Всё, что вам нужно, чтобы пройти этот курс уже есть в ZBrush, потому вам не придется загружать дополнительные файлы. Николас Гарилье (ака Guedin) в настоящее время работает в качестве художника по персонажам в Gameloft Montréal. Он был бета-тестером для Pixologic ZBrush и ему вручили знак отличия во время обучения 3D моделированию в кампусе Ubisoft в Монреале, Квебек. Некоторые из самых впечатляющих художественных работ Николаса, наряду с 4-страничным учебником, были опубликованы в журнале для 3D художников.

Содержание:

Модуль 1
Лекция 1 Набросок и концептуальный скульптинг
Лекция 2 Уточнение формы для шлема
Лекция 3 Создание передних деталей
Лекция 4 Создание задних деталей
Лекция 5 Лепка волчьей головы
Лекция 6 Доработка последних деталей
Модуль 2
Лекция 1 Создание Insert Mesh кистей
Лекция 2 Применение кисти Insert Mesh и добавление меха по сторонам
Лекция 3 Добавление меха спереди и сверху
Лекция 4 Скульптинг рваностей и потертостей
Модуль 3
Лекция 1 Очистка верхней плечевой пластины
Лекция 2 Очистка средней плечевой пластины
Лекция 3 Создание кисти Insert Mesh для средней плечевой пластины
Лекция 4 Очистка нижней плечевой пластины и грудной части
Лекция 5 Использование кисти Insert Mesh на грудной части
Лекция 6 Добавление волка и грудной части
Модуль 4
Лекция 1 Очищение нательных пластин
Лекция 2 Использование кисти Insert Mesh на нательных пластинах Часть 1
Лекция 3 Использование кисти Insert Mesh на нательных пластинах Часть 2
Лекция 4 Очистка рукавов
Лекция 5 Скульптинг лица
Продолжительность: 08:27:00
Качество видео: PCRec
Видео: AVC/H.264, 1024x558, ~1135kbps
Аудио: MP3, 2 ch, 192kbps

MediaInfo:

Общее
Уникальный идентификатор : 227939668219039026853687285556004186142 (0xAB7B95501CDE98D5B408D9B2BC56E81E)
Полное имя : G:\ZBRUSH\[Uartsy] Armor Creation in Zbrush RUS\Module 1\Lecture 1 Blocking Out a Concept Sculpt.mkv
Формат : Matroska
Версия формата : Version 4
Размер файла : 279 Мбайт
Продолжительность : 25 м. 28 с.
Общий поток : 1 530 Кбит/сек
Дата кодирования : UTC 2017-06-17 20:18:57
Программа кодирования : mkvmerge v8.3.0 ('Over the Horizon') 64bit
Библиотека кодирования : libebml v1.3.1 + libmatroska v1.4.2
Видео
Идентификатор : 1
Формат : AVC
Формат/Информация : Advanced Video Codec
Профиль формата : High@L3.1
Настройки формата : CABAC / 4 Ref Frames
Параметр CABAC формата : Да
Параметр RefFrames формата : 4 кадра
Идентификатор кодека : V_MPEG4/ISO/AVC
Продолжительность : 25 м. 28 с.
Битрейт : 1 335 Кбит/сек
Номинальный битрейт : 1 500 Кбит/сек
Ширина : 1 024 пикселя
Высота : 558 пикселей
Соотношение сторон : 1,85:1
Соотношение сторон в оригинале : 1,85:1
Режим частоты кадров : Постоянный
Частота кадров : 30,000 кадров/сек
Цветовое пространство : YUV
Субдискретизация насыщенности : 4:2:0
Битовая глубина : 8 бит
Тип развёртки : Прогрессивная
Бит/(Пиксели*Кадры) : 0.078
Размер потока : 243 Мбайт (87%)
Библиотека кодирования : x264 core 129 r2245 bc13772
Настройки программы : cabac=1 / ref=3 / deblock=1:0:0 / analyse=0x3:0x113 / me=hex / subme=7 / psy=1 / psy_rd=1.00:0.00 / mixed_ref=1 / me_range=16 / chroma_me=1 / trellis=1 / 8x8dct=1 / cqm=0 / deadzone=21,11 / fast_pskip=1 / chroma_qp_offset=-2 / threads=12 / lookahead_threads=2 / sliced_threads=0 / nr=0 / decimate=1 / interlaced=0 / bluray_compat=0 / constrained_intra=0 / bframes=3 / b_pyramid=2 / b_adapt=1 / b_bias=0 / direct=1 / weightb=1 / open_gop=0 / weightp=2 / keyint=250 / keyint_min=25 / scenecut=40 / intra_refresh=0 / rc_lookahead=40 / rc=abr / mbtree=1 / bitrate=1500 / ratetol=1.0 / qcomp=0.60 / qpmin=0 / qpmax=69 / qpstep=4 / ip_ratio=1.40 / aq=1:1.00
Default : Да
Forced : Нет
Аудио
Идентификатор : 2
Формат : MPEG Audio
Версия формата : Version 1
Профиль формата : Layer 3
Настройки формата : Joint stereo / MS Stereo
Идентификатор кодека : A_MPEG/L3
Идентификатор кодека/Подсказка : MP3
Продолжительность : 25 м. 28 с.
Вид битрейта : Постоянный
Битрейт : 192 Кбит/сек
Каналы : 2 канала
Частота : 48,0 КГц
Частота кадров : 41,667 кадра/сек (1152 SPF)
Метод сжатия : С потерями
Размер потока : 35,0 Мбайт (13%)
Default : Да
Forced : Нет

Дополнительная информация:

ZBrush 4R7
Скриншоты:
Скачать .torrent

Чтобы скачать торрент-файл

Nicolas Garilhe - Armor Creation in ZBrush (2015)

Вам нужно Авторизоваться на сайте под своим логином. Если у Вы ещё не зарегистрированы, тогда Вам нужно пройти Регистрацию


Показать сообщения:    
Ответить на тему

Скачать Nicolas Garilhe - Armor Creation in ZBrush (2015) торрент бесплатно. Отзывы, слив складчины.

Текущее время: Сегодня 10:30

Часовой пояс: GMT + 4



Вы не можете начинать темы
Вы не можете отвечать на сообщения
Вы не можете редактировать свои сообщения
Вы не можете удалять свои сообщения
Вы не можете голосовать в опросах
Вы не можете прикреплять файлы к сообщениям
Вы не можете скачивать файлы